вход на сайт

Имя пользователя :
Пароль :

Восстановление пароля Регистрация
Пожизненно / Life (Тед Демме, драма, комедия, криминал, 1999) [BDRip-AVC, Профессиональный (многоголосый закадровый), Авторский (одноголосый закадровый), Оригинал]
Рейтинг:
(голосов: 1)



[img]{THEME}/images/logopost.png[/img]



• Пожизненно / Life •

Год выпуска: 1999
Страна: США
Производство: Imagine Entertainment, Universal Pictures
Жанр: драма, комедия, криминал

Режиссёр: Тед Демме
В ролях: Эдди Мёрфи (Rayford Gibson), Мартин Лоуренс (Claude Banks), Обба Бабатунде (Willie Long), Ник Кассаветис (Sergeant Dillard), Энтони Андерсон (Cookie), Бэрри Шебака Хенли (Pokerface), Брент Дженнингс (Hoppin Bob), Берни Мак (Jangle Leg), Мигель А. Нуньес мл. (Biscuit), Майкл Талиферро (Goldmouth)

Перевод: 1: Профессиональный (многоголосый закадровый) - Екатеринбург Арт Видео
2: Авторский (одноголосый закадровый) - Ю.Живов
3: Оригинал
Субтитры: Нет
Описание
Нью-Йорк, 1932 год. Сухой закон загнал добропорядочных, но страстно желающих выпить граждан в подпольные питейные заведения. В одном из таких притонов и пересеклись дорожки мелкого воришки Рэя Гибсона и незадачливого банковского служащего Клода Бэнкса.

По роковому стечению обстоятельств Рэй и Клод не угодили местному боссу мафии и влипли в большие неприятности. Чтобы реабилитироваться перед разгневанным бандитом, приятели согласились перегнать набитый спиртным грузовик из штата Миссисипи в Нью — Йорк. Но по дороге их арестовали, незаконно обвинили в убийстве и приговорили к пожизненному заключению в местной колонии строгого режима.

Теперь товарищам по несчастью предстоит провести свою жизнь в компании уголовников, не потеряв при этом, однако, надежду совершить побег и отомстить своим обидчикам…



Доп. информацияЗнаете ли вы, что... ▼Несмотря на то, что действие фильма происходит в штате Миссисипи, фильм был снят в Калифорнии.

Награды ▼
Премьеры ▼Премьера (мир) 13 апреля 1999
Mediainfo ▼Format : Matroska
Format version : Version 2
File size : 2.89 GiB
Duration : 1h 48mn
Overall bit rate : 3 815 Kbps
Movie name : LIFE.1999_by_Deerhoof
Encoded date : UTC 2012-05-28 09:24:36
Writing application : mkvmerge v4.9.1 (Ich will) сборка от Aug 10 2011 09:31:20
Writing library : libebml v1.2.1 + libmatroska v1.2.0

Video
ID : 1
Format : AVC
Format/Info : Advanced Video Codec
Format profile : [email protected]
Format settings, CABAC : Yes
Format settings, ReFrames : 11 frames
Codec ID : V_MPEG4/ISO/AVC
Duration : 1h 48mn
Bit rate : 2 735 Kbps
Width : 1 152 pixels
Height : 624 pixels
Display aspect ratio : 16:9
Frame rate : 23.976 fps
Color space : YUV
Chroma subsampling : 4:2:0
Bit depth : 8 bits
Scan type : Progressive
Bits/(Pixel*Frame) : 0.159
Stream size : 2.01 GiB (69%)
Title : LIFE.1999.BDRip-AVC_[rutracker.org]_by_Deerhoof
Writing library : x264 core 120 r2164 da19765
Encoding settings : cabac=1 / ref=11 / deblock=1:-2:-1 / analyse=0x3:0x133 / me=umh / subme=11 / psy=1 / psy_rd=1.03:0.05 / mixed_ref=1 / me_range=48 / chroma_me=1 / trellis=2 / 8x8dct=1 / cqm=0 / deadzone=21,11 / fast_pskip=0 / chroma_qp_offset=-3 / threads=6 / sliced_threads=0 / nr=0 / decimate=1 / interlaced=0 / bluray_compat=0 / constrained_intra=0 / bframes=9 / b_pyramid=2 / b_adapt=2 / b_bias=0 / direct=3 / weightb=1 / open_gop=0 / weightp=2 / keyint=240 / keyint_min=23 / scenecut=40 / intra_refresh=0 / rc_lookahead=80 / rc=2pass / mbtree=1 / bitrate=2735 / ratetol=1.0 / qcomp=0.60 / qpmin=0 / qpmax=69 / qpstep=4 / cplxblur=20.0 / qblur=0.5 / ip_ratio=1.35 / aq=2:0.90
Language : English
Default : Yes
Forced : No

Audio #1
ID : 2
Format : AC-3
Format/Info : Audio Coding 3
Mode extension : CM (complete main)
Codec ID : A_AC3
Duration : 1h 48mn
Bit rate mode : Constant
Bit rate : 192 Kbps
Channel(s) : 2 channels
Channel positions : Front: L R
Sampling rate : 48.0 KHz
Bit depth : 16 bits
Compression mode : Lossy
Stream size : 149 MiB (5%)
Title : Профессиональный: многоголосый закадровый (Екатеринбург Арт Видео)
Lang
58649d3aa765b8de5d5b84ea7f66eb8c8090b7ffПожизненно / Life (Тед Демме, драма, комедия, криминал, 1999) [BDRip-AVC, Профессиональный (многоголосый закадровый), Авторский (одноголосый закадровый), Оригинал] Пожизненно / Life (Тед Демме, драма, комедия, криминал, 1999) [BDRip-AVC, Профессиональный (многоголосый закадровый), Авторский (одноголосый закадровый), Оригинал] " />

Аплоадер: Админ, дата: 29-07-2012, 00:46, торрент скачан: 359 раз

Понравилась раздача? Посмотрите эти:
  • Погнали! / Getaway (Кортни Соломон, боевик, криминал, 2013) [BDRip 720p, Пр ...
  • Верное дельце / Une pure affaire (Александр Коффре, Боевик, Комедия, Кримин ...
  • Ледяной / The Iceman (Ариэль Вромен, драма, криминал, биография, 2013) [BDR ...
  • Смерть на похоронах / Death at a Funeral (Нил ЛаБут, комедия, 2010) [BDRip ...
  • Ордер на смерть / Death warrant (Деран Сарафян, Боевик, драма, криминал, де ...
  • Водитель / The Driver (Уолтер Хилл, Боевик, триллер, драма, криминал, 1978) ...
  • Убить по расписанию / Ticking Clock (Эрни Барбараш, фантастика, боевик, три ...
  • Похищенная / A Lonely Place to Die (Джулиан Джилби, триллер, криминал, прик ...
  • Обряд / The Rite (Микаэль Хафстрем, ужасы, триллер, драма, 2011) [BDRip-AVC ...
  • Пир / Feast (Джон Гулажер, ужасы, боевик, триллер, комедия, 2005) [BDRip-AV ...
  • Пожизненно! / Life (Тед Демме, драма, комедия, криминал, 1999) [BDRip-AVC, ...
  • Повторяющие / Repeaters (Карл Бессай, фантастика, боевик, триллер, драма, к ...
  • Пятница 13-е / Friday the 13th (Шон С. Каннингэм, ужасы, триллер, детектив, ...
  • Пятница 13-е Часть 2 / Friday the 13th Part 2 (Стив Майнер, ужасы, триллер, ...
  • Охота за "Красным Октябрём" / The Hunt for "Red October" (Джон МакТирнан, б ...
  • Пятница 13-е Часть III / Friday the 13th Part III (Стив Майнер, ужасы, трил ...
  • Любимые / The Loved Ones (Шон Бирн, ужасы, триллер, драма, 2009) [BDRip-AVC ...
  • Город воров [Театральная версия] / The Town [Theatrical cut] (Бен Аффлек, т ...
  • Красавчик Джонни / Johnny Handsome (Уолтер Хилл, Триллер, драма, криминал, ...
  • Китайский квартал / Chinatown (Роман Полански, Триллер, драма, криминал, де ...
  • Такси 2 / Taxi 2 (Жерар Кравчик, боевик, комедия, криминал, 2000) [BDRip 72 ...
  • Викинги / Outlander (Ховард МакКейн, Фантастика, боевик, приключения, 2008) ...
  • Пожизненно! / Life (Ted Demme, Комедия, Драма, Криминал, 1999) [DVDRip, Про ...
  • Футбольные гладиаторы / Ушедшее время / Awaydays (Пэт Холден, драма, кримин ...
  • Пожизненно! / Life (Тед Демме, драма, комедия, криминал, 1999) [HDTVRip, Пр ...
  • Информация
    Посетители, находящиеся в группе Гости, не могут оставлять комментарии к данной публикации.