вход на сайт

Имя пользователя :
Пароль :

Восстановление пароля Регистрация
В доме отца / Casa de mi Padre (Мэтт Пидмонт, комедия, 2012) [BDRip-AVC, Дубляж, Sub]
Рейтинг:
(голосов: 1)



[img]{THEME}/images/logopost.png[/img]



В доме отца / Casa de mi Padre

Год выпуска: 2012
Страна:США
Производство: NALA Films, Gary Sanchez Productions
Жанр: Комедия

Режиссёр: Мэтт Пидмонт
В ролях: Уилл Феррелл, Гаэль Гарсия Берналь, Диего Луна, Педро Армендарис мл., Генезис Родригез, Эфрен Рамирез, Адриан Мартинез, Мэнюель Уррего, Ник Офферман, Джерри Коллинз

Перевод: Дубляж
Субтитры: русские, английские

Описание: Армандо Альварес обычный парень, не особо видавший жизнь. Да и как насладиться ею, когда он вынужден проводить все своё время на ранчо своего отца. Да все осложняется еще и тем, что он английского не знает. И это просто катастрофа для человека, который не может покинуть родную Мексику, чтоб на некоторое время вдохнуть свежий воздух свободы. А тут еще их семейный бизнес не заладился на ранчо, возникли финансовые трудности, отцу срочно требуется немалая сумма денег. И в этот момент, словно спаситель, приезжает его брат Армандо Рауль со своей новой невестой. А у него все хорошо, он очень успешный, умеет вести свой бизнес, да и долг отца обещает погасить. Но…



Качество: BDRip-AVC
Продолжительность: 01:24:27 час.


Формат: MKV
Видео кодек: x264
Аудио кодек:AC3
Видео: 1056x448 (2,35:1), 23.976 fps, x264 ~2 028 kbps avg, 0.179 bit/pixel
Аудио: 48 kHz, AC3 Dolby Digital, 3/2 (L,C,R,l,r) + LFE ch, ~448 kbps

Дата премьеры (мир): 13 марта 2012
Дата премьеры (РФ): 17 мая 2012, «Парадиз»

MediaInfo ▼General
Unique ID : 240855774507423426776476382927447088617 (0xB5332284E3E06AEBB837847F7BEB5DE9)
Complete name : V.Dome.Otca.2012.D.BDRip.x264.potroks.mkv
Format : Matroska
File size : 1.46 GiB
Duration : 1h 24mn
Overall bit rate : 2 477 Kbps
Movie name : -=POTROKS=-
Encoded date : UTC 2012-07-15 04:46:45
Writing application : mkvmerge v5.6.0 (Kenya Kane) built on May 27 2012 16:44:04
Writing library : libebml v1.2.3 + libmatroska v1.3.0

Video
ID : 1
Format : AVC
Format/Info : Advanced Video Codec
Format profile : [email protected]
Format settings, CABAC : Yes
Format settings, ReFrames : 9 frames
Codec ID : V_MPEG4/ISO/AVC
Duration : 1h 24mn
Bit rate : 2 028 Kbps
Width : 1 056 pixels
Height : 448 pixels
Display aspect ratio : 2.35:1
Frame rate : 23.976 fps
Color space : YUV
Chroma subsampling : 4:2:0
Bit depth : 8 bits
Scan type : Progressive
Bits/(Pixel*Frame) : 0.179
Stream size : 1.17 GiB (80%)
Title : V.Dome.Otca.2012.D.BDRip.x264.potroks
Writing library : x264 core 116 r2019M 9cc407d
Encoding settings : cabac=1 / ref=10 / deblock=1:-2:-2 / analyse=0x3:0x133 / me=umh / subme=9 / psy=1 / psy_rd=1.00:0.00 / mixed_ref=1 / me_range=42 / chroma_me=1 / trellis=1 / 8x8dct=1 / cqm=0 / deadzone=21,13 / fast_pskip=0 / chroma_qp_offset=-2 / threads=8 / sliced_threads=0 / nr=0 / decimate=1 / interlaced=0 / bluray_compat=0 / constrained_intra=0 / bframes=8 / b_pyramid=1 / b_adapt=2 / b_bias=0 / direct=3 / weightb=1 / open_gop=0 / weightp=2 / keyint=230 / keyint_min=23 / scenecut=40 / intra_refresh=0 / rc_lookahead=100 / rc=2pass / mbtree=1 / bitrate=2028 / ratetol=1.0 / qcomp=0.60 / qpmin=10 / qpmax=51 / qpstep=4 / cplxblur=20.0 / qblur=0.5 / ip_ratio=1.37 / aq=1:1.20
Language : Spanish

Audio
ID : 2
Format : AC-3
Format/Info : Audio Coding 3
Mode extension : CM (complete main)
Codec ID : A_AC3
Duration : 1h 24mn
Bit rate mode : Constant
Bit rate : 448 Kbps
Channel(s) : 6 channels
Channel positions : Front: L C R, Side: L R, LFE
Sampling rate : 48.0 KHz
Bit depth : 16 bits
Compression mode : Lossy
Stream size : 271 MiB (18%)
Title : Dub AC3, 5.1 ch., 448 kbps
Language : Russian

Text #1
ID : 3
Format : UTF-8
Codec ID : S_TEXT/UTF8
Codec ID/Info : UTF-8 Plain Text
Language : Russian

Text #2
ID : 4
Format : UTF-8
Codec ID : S_TEXT/UTF8
Codec ID/Info : UTF-8 Plain Text
Language : English





&n
073c12438dfd4b26588de43e8612f6ca41744b66В доме отца / Casa de mi Padre (Мэтт Пидмонт, комедия, 2012) [BDRip-AVC, Дубляж, Sub] В доме отца / Casa de mi Padre (Мэтт Пидмонт, комедия, 2012) [BDRip-AVC, Дубляж, Sub] " />

Аплоадер: Админ, дата: 15-07-2012, 13:14, торрент скачан: 359 раз

Понравилась раздача? Посмотрите эти:
  • FLO / NRG [2012, Pop, Dance, MasterRip]
  • Синистер / Sinister (Скотт Дерриксон, ужасы, детектив, 2012) [BDRip-AVC, Ду ...
  • 007: Координаты «Скайфолл» / Skyfall (Сэм Мендес, Боевик, триллер, криминал ...
  • Замуж на 2 дня / Un plan parfait (Паскаль Шомель, Мелодрама, комедия, прикл ...
  • Суррогат / The Sessions (Бен Луин, драма, 2012) [BDRip 720p, Профессиональн ...
  • Зубная фея 2 / Tooth Fairy 2 (Алекс Замм, комедия, семейный, 2012) [BDRip 7 ...
  • Хранитель времени / Hugo (Мартин Скорсезе, Драма, 2011) [BDRip-AVC, Професс ...
  • Бедная богатая девочка / Young Adult (Джейсон Райтман, драма, комедия, 2011 ...
  • В доме отца / Casa de mi Padre (Мэтт Пидмонт, комедия, 2012) [HDRip, Дублир ...
  • Жажда странствий / Wanderlust (Дэвид Уэйн, Мелодрама, комедия, 2012) [BDRip ...
  • Немножко женаты / The Five-Year Engagement (Николас Столлер, Мелодрама, ком ...
  • Красные огни / Red Lights (Родриго Кортес, Ужасы, триллер, драма, 2012) [BD ...
  • Патруль / End of Watch (Дэвид Эйр, Триллер, драма, криминал, 2012) [BDRip-A ...
  • Идеальный Голос / Pitch Perfect (Джейсон Мур, Комедия, музыка, 2012) [BDRip ...
  • Бобер / The Beaver (Джоди Фостер, драма, 2011) [BDRip 720p, Дубляж + Оригин ...
  • Проект X: Дорвались / Project X (Нима Нуризаде, комедия, 2012) [BDRip 720p, ...
  • «Весёлые» каникулы / Get the Gringo (Адриан Грюнберг, Боевик, комедия, 2012 ...
  • В доме отца / Casa de mi Padre (Мэтт Пидмонт, комедия, 2012) [BDRip 720p, Д ...
  • Ворон / The Raven (Джеймс МакТиг, Триллер, детектив, 2012) [BDRip 720p, Дуб ...
  • Пираньи 3DD / Piranha 3DD (Джон Гулажер, ужасы, триллер, комедия, 2012) [BD ...
  • Семь футов / Seven Below (Кевин Каррауэй, Ужасы, триллер, 2012) [BDRip 720p ...
  • Супер Майк / Magic Mike (Стивен Содерберг, Драма, комедия, 2012) [BDRip 720 ...
  • Супер Майк / Magic Mike (Стивен Содерберг, Драма, комедия, 2012) [BDRip 108 ...
  • На Дороге / On The Road (Уолтер Саллес, Драма, приключения, 2012) [BDRip 72 ...
  • В доме отца / Casa de mi Padre (Мэтт Пидмонт, комедия, 2012) [HDRip, Дубляж ...
  • Информация
    Посетители, находящиеся в группе Гости, не могут оставлять комментарии к данной публикации.