вход на сайт

Имя пользователя :
Пароль :

Восстановление пароля Регистрация
Сутенер / Le mac (Паскаль Бюрдо / Pascal Bourdiaux, комедия, криминал, 2010) [BDRip - AVC, Дублированный + Оригинал + SUB]
Рейтинг:
(голосов: 1)



[img]{THEME}/images/logopost.png[/img]



Сутенер / Le mac

Год выпуска: 2010
Страна: Франция
Производство: ARP Sélection, Canal+ [fr], Ciné Cinémas, La Petite Reine, M6 Films, Procirep
Жанр: комедия, криминал

Режиссёр: Паскаль Бюрдо / Pascal Bourdiaux
В ролях: Хосе Гарсия, Жильбер Мелки, Кармен Маура, Арсен Моска, Джо Престиа, Каталина Дэнис, Ален Фромаже, Лорен Батье, Дуду Маста, Эрик Дефосс

Перевод: 1: Профессиональный (полное дублирование) (DUB)
2: Оригинал
Субтитры: Отсутствуют

Описание: Его зовут Жильбер Шапель и он успешный банкир. В один прекрасный день его жизнь круто меняется! Оказывается, у Жильбера есть брат-близнец, который является опасным преступником и сутенером. Полицейские разыскали Жильбера и предложили ему необычную сделку! Жильбер сыграет роль своего брата и у него всего 36 часов на превращение из банкира в сутенера!Дата премьеры (мир): 22 января 2010
Дата премьеры (РФ): 11 ноября 2010, «Люксор»
Релиз на DVD: 16 декабря 2010, «Columbia/Sony»
Качество: BDRip - AVC
Продолжительность: 01:32:12

Формат: MKV
Видео кодек: x264
Аудио кодек: AC3
Видео: 1068 x 456 (2.35:1), 24.000 fps, ~2 555 kbps avg, 0.219 bit/pixel
Аудио #1: [Russian] 48 kHz, AC3, 6 channels (Front: L C R, Side: L R, LFE), ~384.00 kbps avg | DUB
Аудио #2: [French] 48 kHz, AC3, 6 channels (Front: L C R, Side: L R, LFE), ~448.00 kbps avg | Оригинал
MediaInfo ▼TextGeneral
Unique ID : 227215281098249232527698233798025302088 (0xAAF012453C422BBF90CF48409E545048)
Complete name : D:VIDEOLe.mac.2009.BDRip-AVC.mkv
Format : Matroska
File size : 2.18 GiB
Duration : 1h 32mn
Overall bit rate : 3 387 Kbps
Encoded date : UTC 2011-01-24 03:41:22
Writing application : mkvmerge v3.4.0 (Rapunzel) built on May 15 2010 09:38:20
Writing library : libebml v0.8.0 + libmatroska v0.9.0
Video
ID : 1
Format : AVC
Format/Info : Advanced Video Codec
Format profile : High@L4.0
Format settings, CABAC : Yes
Format settings, ReFrames : 9 frames
Codec ID : V_MPEG4/ISO/AVC
Duration : 1h 32mn
Bit rate : 2 555 Kbps
Width : 1 068 pixels
Height : 456 pixels
Display aspect ratio : 2.35:1
Frame rate : 24.000 fps
Color space : YUV
Chroma subsampling : 4:2:0
Bit depth : 8 bits
Scan type : Progressive
Bits/(Pixel*Frame) : 0.219
Stream size : 1.60 GiB (73%)
Title : Le mac
Writing library : x264 core 112 r1867 22bfd31
Encoding settings : cabac=1 / ref=9 / deblock=1:-2:-1 / analyse=0x3:0x133 / me=umh / subme=10 / psy=1 / psy_rd=1.10:0.10 / mixed_ref=1 / me_range=32 / chroma_me=0 / trellis=2 / 8x8dct=1 / cqm=0 / deadzone=21,11 / fast_pskip=0 / chroma_qp_offset=-3 / threads=6 / sliced_threads=0 / nr=0 / decimate=0 / interlaced=0 / constrained_intra=0 / bframes=10 / b_pyramid=2 / b_adapt=2 / b_bias=0 / direct=3 / weightb=1 / open_gop=0 / weightp=2 / keyint=250 / keyint_min=24 / scenecut=40 / intra_refresh=0 / rc_lookahead=40 / rc=2pass / mbtree=0 / bitrate=2555 / ratetol=1.0 / qcomp=0.65 / qpmin=0 / qpmax=51 / qpstep=4 / cplxblur=20.0 / qblur=0.5 / vbv_maxrate=25000 / vbv_bufsize=31250 / nal_hrd=none / ip_ratio=1.40 / pb_ratio=1.30 / aq=1:1.00
Language : French
Audio #1
ID : 2
Format : AC-3
Format/Info : Audio Coding 3
Mode extension : CM (complete main)
Codec ID : A_AC3
Duration : 1h 32mn
Bit rate mode : Constant
Bit rate : 384 Kbps
Channel(s) : 6 channels
Channel positions : Front: L C R, Side: L R, LFE
Sampling rate : 48.0 KHz
Bit depth : 16 bits
Compression mode : Lossy
Stream size : 253 MiB (11%)
Title : Дубляж
Language : Russian
Audio #2
ID : 3
Format : AC-3
Format/Info : Audio Coding 3
Mode extension : CM (complete main)
Codec ID : A_AC3
Duration : 1h 32mn
Bit rate mode : Constant
Bit rate : 448 Kbps
Channel(s) : 6 channels
Channel positions : Front: L C R, Side: L R, LFE
Sampling rate : 48.0 KHz
Bit depth : 16 bits
Compression mode : Lossy
Stream size : 295 MiB (13%)
Title : Французский
Language
f85b748d242bdcae132047b7edd69a9cb90bc169Сутенер / Le mac (Паскаль Бюрдо / Pascal Bourdiaux, комедия, криминал, 2010) [BDRip - AVC, Дублированный + Оригинал + SUB] Сутенер / Le mac (Паскаль Бюрдо / Pascal Bourdiaux, комедия, криминал, 2010) [BDRip - AVC, Дублированный + Оригинал + SUB] " />

Аплоадер: Админ, дата: 7-07-2012, 12:38, торрент скачан: 359 раз

Понравилась раздача? Посмотрите эти:
  • Грязь / Filth (Джон С. Бейрд, криминал, драма, комедия, 2013) [BDRip-AVC, ...
  • Снова ты / You Again (Энди Фикмен, Мелодрама, комедия, 2010) [BDRip-AVC, Пр ...
  • Отдел 13 / Diamant 13 (Гайллз Бэхат, Боевик, триллер, криминал, 2009) [BDRi ...
  • Сутенер / Le mac (Паскаль Будрио, комедия, криминал, 2010) [HDRip, Дубляж]
  • Замуж на 2 дня / Un plan parfait (Паскаль Шомель, Мелодрама, комедия, прикл ...
  • Сутенер / Le mac (Паскаль Бюрдо, комедия, криминал, 2010) [BDRip, Дублирова ...
  • Персонаж / Stranger Than Fiction (Марк Форстер, Комедия, драма, фантастика, ...
  • Мармадюк / Marmaduke (Том Дей, комедия, семейный, 2010) [BDRip-AVC, Дублиро ...
  • Бедная богатая девочка / Young Adult (Джейсон Райтман, драма, комедия, 2011 ...
  • Вампирский засос / Vampires Suck (Джейсон Фридберг, Аарон Зельцер, комедия, ...
  • Человек-волк [Театральная версия] / The Wolfman [Theatrical cut] (Джо Джонс ...
  • Робин Гуд [Режиссёрская версия] / Robin Hood [Directors Cut] (Ридли Скотт / ...
  • Второй шанс / Gridiron Gang (Фил Джоану / Phil Joanou, драма, криминал, спо ...
  • Мальчики-налетчики / Takers (Джон Льюсенхоп, боевик, криминал, 2010) [BDRip ...
  • Сутенер / Le mac (Паскаль Бюрдо,Комедия, Криминал,2009) [DVD5, Профессионал ...
  • Mylene Farmer / Du Temps [2011, Pop, HDTVRip]
  • Сутенер / Le mac (Паскаль Будрио / Pascal Bourdiaux, комедия, криминал, 201 ...
  • Сутенер / Le mac (Паскаль Бюрдо, комедия, криминал, 2009) [HDRip-AVC, Дубли ...
  • Сутенер / Le mac (Паскаль Бюрдо, комедия, криминал, 2009) [HDRip, Профессио ...
  • Сутенер / Le mac (Паскаль Бюрдо, Комедия, криминал, 2009) [BDRip, Профессио ...
  • Информация
    Посетители, находящиеся в группе Гости, не могут оставлять комментарии к данной публикации.