вход на сайт

Имя пользователя :
Пароль :

Восстановление пароля Регистрация
Акулы пера / Soloalbum (Грегор Шнитцлер, мелодрама, комедия, 2003) [BDRip, Профессиональный (двухголосый, закадровый)]
Рейтинг:
(голосов: 1)



[img]{THEME}/images/logopost.png[/img]



Акулы пера | Soloalbum

Год выпуска: 2003
Страна: Германия
Производство: Clasart Film + TV Produktions GmbH
Жанр: мелодрама, комедия

Режиссёр: Грегор Шнитцлер / Gregor Schnitzler
В ролях: Маттиас Швайгхефер, Нора Чирнер, Оливер Внук, Кристиан Нэте, Лиза Поттхофф, Леандер Хаусманн, Матиас Матчке, Сэнди Мёллинг, Томас Ди, Юлия Дитце

Перевод: Профессиональный (двухголосый, закадровый)
Субтитры: Отсутствуют

Описание: Бен — ведущий критик в суперпопулярном музыкальном журнале. Музыканты готовы пойти на все, чтобы он тиснул благожелательную заметку об их творчестве… даже позволить своим подружкам его соблазнить.

И не знающий ни в чем отказа Бен решает не ходить на день рождения к любимой девушке Катарине. Она может и подождать. Но Катарина думает иначе. Осознав, что потерял ее, Бен целыми днями заливает в себя алкоголь и изо всех сил старается вернуть Катарину.Дата премьеры (мир): 27 марта 2003
Качество: BDRip | исх. Soloalbum.2003.1080p.Bluray.GER.AVC.Remux
Продолжительность: 01:29:32

Релиз от: &
Автор рипа: encoderrr

Формат: AVI
Видео кодек: XviD build 65
Аудио кодек: MPEG Layer 3
Видео: 672x304 (2.21:1), 23.976 fps, XviD build 65 ~1035 kbps avg, 0.21 bit/pixel
Аудио: 48 kHz, MPEG Layer 3, 2 ch, ~128.00 kbps avg | Rus - Профессиональный (двухголосый, закадровый)

MediaInfo ▼General
Complete name : D:All FilmsSoloalbum.by.encoderrr.(745MB).avi
Format : AVI
Format/Info : Audio Video Interleave
File size : 750 MiB
Duration : 1h 29mn
Overall bit rate : 1 173 Kbps
Writing application : VirtualDubMod 1.5.10.3 | www.virtualdub-fr.org || (build 2550/release)
Writing library : VirtualDubMod build 2550/release
Video
ID : 0
Format : MPEG-4 Visual
Format profile : Advanced [email protected]
Format settings, BVOP : 2
Format settings, QPel : No
Format settings, GMC : No warppoints
Format settings, Matrix : Custom
Codec ID : XVID
Codec ID/Hint : XviD
Duration : 1h 29mn
Bit rate : 1 036 Kbps
Width : 672 pixels
Height : 304 pixels
Display aspect ratio : 2.2:1
Frame rate : 23.976 fps
Color space : YUV
Chroma subsampling : 4:2:0
Bit depth : 8 bits
Scan type : Progressive
Compression mode : Lossy
Bits/(Pixel*Frame) : 0.211
Stream size : 662 MiB (88%)
Writing library : XviD 65
Audio
ID : 1
Format : MPEG Audio
Format version : Version 1
Format profile : Layer 3
Mode : Joint stereo
Codec ID : 55
Codec ID/Hint : MP3
Duration : 1h 29mn
Bit rate mode : Constant
Bit rate : 128 Kbps
Channel(s) : 2 channels
Sampling rate : 48.0 KHz
Compression mode : Lossy
Stream size : 81.9 MiB (11%)
Alignment : Aligned on interleaves
Interleave, duration : 42 ms (1.00 video frame)
Interleave, preload duration : 504 ms
Writing library : L3.99r
Encoding settings : -m j -V 4 -q 0 -lowpass 17 -b 128





31d2d0423fb4f6e10e83be41c288f063959924aaАкулы пера / Soloalbum (Грегор Шнитцлер, мелодрама, комедия, 2003) [BDRip, Профессиональный (двухголосый, закадровый)] Акулы пера / Soloalbum (Грегор Шнитцлер, мелодрама, комедия, 2003) [BDRip, Профессиональный (двухголосый, закадровый)] " />

Аплоадер: Админ, дата: 5-07-2012, 14:10, торрент скачан: 359 раз

Понравилась раздача? Посмотрите эти:
  • Вирус / Flu (Ким Сон Су, Драма, 2013) [HDTVRip, Любительский (двухголосый з ...
  • Хладнокровная / Cold Blooded (Джейсон Лапейр, Триллер, криминал, 2012) [WEB ...
  • Альбатрос / Albatross (Найал МакКормик, Драма, 2011) [DVDRip, Профессиональ ...
  • Колония / The Colony (Джефф Ренфро, фантастика, боевик, триллер, 2013) [DVD ...
  • Игра смерти / Game of death (Роберт Клауз, Саммо Хунг Кам-Бо, Брюс Ли, боев ...
  • Лучший стрелок / Top Gun (Тони Скотт, боевик, драма, мелодрама, 1986) [BDRi ...
  • Без всего / Sin ella (Джордже Колон, Мелодрама, 2010) [HDTVRip , Профессион ...
  • Засну, когда умру / Ill Sleep When Im Dead (Майк Ходжис, триллер, драма, кр ...
  • Мой парень – псих / Silver Linings Playbook (Дэвид О. Расселл, Драма, мелод ...
  • Чемпионат Европы 2012 / Группа D / 1-й тур / Украина - Швеция / Спорт 1 [11 ...
  • Дом вверх дном / Bringing Down the House (Адам Шенкман, комедия, 2003) [BDR ...
  • Папаша / Starbuck (Кен Скотт, Драма, комедия, 2011) [BDRip, Профессиональны ...
  • Облако / Die Wolke (Грегор Шнитцлер, фантастика, триллер, драма, 2006) [BDR ...
  • Неприкасаемые / Intouchables (Оливье Накаш, Эрик Толедано, Драма, 2011) [BD ...
  • Трус / Faintheart (Вито Рокко, Комедия, 2008) [BDRip, Профессиональный (дву ...
  • Романтики / The Romantics (Галт Нидерхоффер, Драма, мелодрама, комедия, 201 ...
  • Чемпионат Европы 2012 / Группа B / 1-й тур / Германия - Португалия / Спорт ...
  • Искажение / Skew (Сейв Челенз, ужасы, триллер, 2011) [HDRip, Профессиональн ...
  • Ничего, кроме правды / Nothing But the Truth (Род Лури, триллер, драма, 200 ...
  • Крузо / Crusoe (Калеб Дешанель, Драма, 1988) [HDTVRip, Профессиональный (дв ...
  • Информация
    Посетители, находящиеся в группе Гости, не могут оставлять комментарии к данной публикации.