вход на сайт

Имя пользователя :
Пароль :

Восстановление пароля Регистрация
Проект X: Дорвались / Project X (Нима Нуризаде, комедия, 2012) [BDRip - AVC, Дублированный + Оригинал + SUB]
Рейтинг:
(голосов: 1)



[img]{THEME}/images/logopost.png[/img]



Проект X: Дорвались / Project X
«Вечеринка, о которой ты даже не мечтал»

Год выпуска: 2012
Страна: США
Производство: Green Hat Films, Silver Pictures
Жанр: комедия

Режиссёр: Нима Нуризаде
В ролях: Томас Манн, Оливер Купер, Джонатан Даниэль Браун, Дакс Флэйм, Кирби Блисс Блэнтон, Брэйди Эндер, Ник Нервис, Алексис Кнапп, Майлз Теллер, Питер Маккензи

Перевод: 1: Профессиональный (полное дублирование) (DUB)
2: Оригинал
Субтитры: русские, английские

Описание: Сюжет вращается вокруг троих одноклассников, решивших устроить крутую вечеринку и прославиться на всю округу — правда, удержать события под контролем у них не получилось.Дата премьеры (мир): 1 марта 2012
Дата премьеры (РФ): 2 апреля 2012, «Каро-Премьер»
Релиз на DVD: 19 июня 2012, «CP Дистрибуция»
Релиз на Blu-Ray: 5 июля 2012, «CP Дистрибуция»
Качество: BDRip - AVC
Продолжительность: 01:27:52

Формат: MKV
Видео кодек: x264
Аудио кодек: AC3
Видео: 1152x648 (16:9), 23.976 fps, AVC, 4022 kbps avg, 0.225 bit/pixel
Аудио #1: [Russian] 48 kHz, AC3, 6 channels (Front: L C R, Side: L R, LFE), ~384.00 kbps avg | DUB
Аудио #2: [English] 48 kHz, AC3, 6 channels (Front: L C R, Side: L R, LFE), ~384.00 kbps avg | Оригинал
MediaInfo ▼TextПолное имя : D:Проект.X.Дорвались-Project.X.mkv
Формат : Matroska
Версия формата : Version 2
Размер файла : 2,94 Гбайт
Продолжительность : 1 ч. 27 м.
Общий поток : 4790 Кбит/сек
Название фильма : Release by Lelya_K for NNM-Club.ru
Дата кодирования : UTC 2012-06-15 17:30:44
Программа кодирования : mkvmerge v4.6.0 (Still Crazy After All These Years) сборка от Mar 10 2011 02:50:32
Библиотека кодирования : libebml v1.2.0 + libmatroska v1.1.0

Видео
Идентификатор : 1
Формат : AVC
Формат/Информация : Advanced Video Codec
Профиль формата : [email protected]
Параметр CABAC формата : Да
Параметр ReFrames формата : 11 кадров
Параметры GOP формата : M=1, N=48
Идентификатор кодека : V_MPEG4/ISO/AVC
Продолжительность : 1 ч. 27 м.
Битрейт : 4022 Кбит/сек
Ширина : 1152 пикс.
Высота : 648 пикс.
Соотношение сторон : 16:9
Частота кадров : 23,976 кадр/сек
Цветовое пространство : YUV
Подвыборка цветности : 4:2:0
Битовая глубина : 8 бит
Тип развёртки : Прогрессивная
Бит/(Пиксели*Кадры) : 0.225
Размер потока : 2,41 Гбайт (82%)
Заголовок : Проект X: Дорвались / Project X [Theatrical] (2012) [H.264] BDRip
Библиотека кодирования : x264 core 116 r2044 392e762
Настройки программы : cabac=1 / ref=11 / deblock=1:-1:-1 / analyse=0x3:0x133 / me=umh / subme=10 / psy=1 / psy_rd=1.00:0.15 / mixed_ref=0 / me_range=32 / chroma_me=1 / trellis=2 / 8x8dct=1 / cqm=0 / deadzone=21,11 / fast_pskip=0 / chroma_qp_offset=-3 / threads=12 / sliced_threads=0 / nr=0 / decimate=1 / interlaced=0 / bluray_compat=0 / constrained_intra=0 / bframes=10 / b_pyramid=2 / b_adapt=2 / b_bias=0 / direct=3 / weightb=1 / open_gop=0 / weightp=2 / keyint=250 / keyint_min=23 / scenecut=40 / intra_refresh=0 / rc_lookahead=60 / rc=2pass / mbtree=1 / bitrate=4022 / ratetol=1.0 / qcomp=0.60 / qpmin=0 / qpmax=69 / qpstep=4 / cplxblur=20.0 / qblur=0.5 / ip_ratio=1.40 / aq=1:1.00
Язык : English

Аудио #1
Идентификатор : 2
Формат : AC-3
Формат/Информация : Audio Coding 3
Расширение режима : CM (complete main)
Идентификатор кодека : A_AC3
Продолжительность : 1 ч. 27 м.
Вид битрейта : Постоянный
Битрейт : 384 Кбит/сек
Каналы : 6 каналов
Расположение каналов : Front: L C R, Side: L R, LFE
Частота : 48,0 КГц
Битовая глубина : 16 бит
Метод сжатия : С потерями
Размер потока : 241 Мбайт (8%)
Заголовок : Dub R5 / Rus / AC3 5.1
Язык : Russian

Аудио #2
Идентификатор : 3
Формат : AC-3
Формат/Информация : Audio Coding 3
Расширение режима : CM (complete main)
Идентификатор кодека : A_AC3
Продолжительность : 1 ч. 27 м.
Вид битрейта : Постоянный
Битрейт : 384 Кбит/сек
Каналы : 6 каналов
Р
9d6cb706738478c9518697bfac22302a06203f38Проект X: Дорвались / Project X (Нима Нуризаде, комедия, 2012) [BDRip - AVC, Дублированный + Оригинал + SUB] Проект X: Дорвались / Project X (Нима Нуризаде, комедия, 2012) [BDRip - AVC, Дублированный + Оригинал + SUB] " />

Аплоадер: Админ, дата: 17-06-2012, 11:48, торрент скачан: 359 раз

Понравилась раздача? Посмотрите эти:
  • Византия / Byzantium (Нил Джордан, Фэнтези, триллер, драма, 2012) [BDRip 10 ...
  • Проект X: Дорвались / Project X / Extended Cut (Нима Нуризаде, комедия, 201 ...
  • Ворон / The Raven (Джеймс МакТиг, Триллер, детектив, 2012) [BDRip 1080p, Ду ...
  • Проект X: Дорвались / Project X [EXTENDED] (Нима Нуризаде, комедия, 2012) [ ...
  • Проект X: Дорвались / Project X [EXTENDED] (Нима Нуризаде, комедия, 2012) [ ...
  • Проект Х: Дорвались/ Progect X(Нима Нуризаде, комедия, 2012) [960 x 640] [D ...
  • Суррогат / The Sessions (Бен Луин, Драма, 2012) [BDRip-AVC, Профессиональны ...
  • Спиди Гонщик / Speed Racer (Энди Вачовски / Andy Wachowski, Лана Вачовски / ...
  • Переростки / The Inbetweeners (Бен Палмер, Комедия, 2011) [BDRip-AVC, Профе ...
  • Свадебный разгром / A Few Best Men (Стефан Эллиотт, комедия, 2011) [BDRip-A ...
  • Проект X: Дорвались / Project X (Нима Нуризаде, комедия, 2012) [BDRip-AVC, ...
  • Проект X: Дорвались [Театральная версия] / Project X [Theatrical Version] ( ...
  • Проект X: Дорвались [Театральная версия] / Project X [Theatrical Version] ( ...
  • Проект X: Дорвались / Project X (Нима Нуризаде, комедия, 2012) [НDRip - AVC ...
  • Проект X: Дорвались [Расширенная версия] / Project X [Extended Cut] (Нима Н ...
  • Убойное Рождество Гарольда и Кумара / A Very Harold & Kumar Christmas (Тодд ...
  • Проект X: Дорвались / Project X (Нима Нуризаде, комедия, 2012) [BDRip 720p, ...
  • Проект X: Дорвались [Театральная версия] / Project X [Theatrical Cut] (Нима ...
  • Проект X: Дорвались / Project X [EXTENDED] (Нима Нуризаде, комедия, 2012) [ ...
  • Проект X: Дорвались / Project X (Нима Нуризаде, комедия, 2012) [320x176] [H ...
  • Проект X: Дорвались / Project X (Нима Нуризаде, комедия, 2012) [HDRip, Дубл ...
  • Проект X: Дорвались / Project X / Theatrical Cut (Нима Нуризаде, комедия, 2 ...
  • Проект X: Дорвались / Project X [Extended] (Нима Нуризаде, комедия, 2012) [ ...
  • Проект X: Дорвались / Project X (Нима Нуризад, комедия, 2012) [DVD9, Профес ...
  • [iPhone, iPod] Проект Х / Project X (Нима Нуризаде, комедия, 2012) [480х32 ...
  • Информация
    Посетители, находящиеся в группе Гости, не могут оставлять комментарии к данной публикации.