вход на сайт

Имя пользователя :
Пароль :

Восстановление пароля Регистрация
Таможня дает добро / Rien à déclarer (Дэни Бун, Комедия, 2010) [BDRip - AVC, Дублированный + Оригинал + SUB]
Рейтинг:
(голосов: 1)



[img]{THEME}/images/logopost.png[/img]



Таможня дает добро / Rien à déclarer
«Бельгийские вафли vs. лягушачьи лапки»

Год выпуска: 2010
Страна: Франция
Производство: Canal+ [fr], Centre National de la Cinématographie (CNC), Ciné Cinémas, Les Productions du Chtimi, Pathé, Région Wallone, SCOPE Invest, Scope Pictures, TF1 Films Production
Жанр: Комедия

Режиссёр: Дэни Бун / Dany Boon
В ролях: Бенуа Пульворд (Ruben Vandevoorde), Дэни Бун (Mathias Ducatel), Джули Бернард (Louise Vandevoorde), Карин Виар (Irène Janus), Франсуа Дамиенс (Jacques Janus), Боли Ланнерс (Bruno Vanuxem), Оливье Гурме (Le prêtre de Chimay), Мишель Вюйермоз (Le divisionnaire Mercier), Christel Pedrinelli (Olivia Vandevoorde), Joachim Ledeganck (Léopold Vandevoorde), Филипп Маньян (Le divisionnaire Mercier), Jean-Paul Dermont (Le père Vandevoorde)

Перевод: 1: Профессиональный (полное дублирование) (DUB)
2: Оригинал (француский)
Субтитры: русские + английские + украинские + французские

Описание: История двух недотеп-таможенников, француза и бельгийца. Не испытывая особой приязни друг к другу, они, тем не менее, вынуждены стать напарниками и принимать участие в рискованной операции…Дата премьеры (мир): 15 декабря 2010
Дата премьеры (РФ): 14 апреля 2011, «West»
Релиз на DVD: 18 октября 2011, «West Video»
Качество: BDRip - AVC
Продолжительность: 01:48:19

Формат: MKV
Видео кодек: x264
Аудио кодек: AC3
Видео: 1152 x 492 (2.35:1), 24.000 fps, AVC, 4 246 kbps avg, 0.312 bit/pixel
Аудио #1: [Russian] 48 kHz, AC3, 6 channels (Front: L C R, Side: L R, LFE), 384 kbps avg | DUB
Аудио #2: [French] 48 kHz, AC3, 6 channels (Front: L C R, Side: L R, LFE), 448 kbps avg | Оригинал
MediaInfo ▼TextFile size : 3.92 GiB
Duration : 1h 48mn
Overall bit rate : 5 181 Kbps
Encoded date : UTC 2011-10-29 14:35:44
Writing application : mkvmerge v4.5.0 (Speed of Light) built on Feb 1 2011 02:10:32
Writing library : libebml v1.2.0 + libmatroska v1.1.0

Video
ID : 1
Format : AVC
Format/Info : Advanced Video Codec
Format profile : [email protected]
Format settings, CABAC : Yes
Format settings, ReFrames : 6 frames
Muxing mode : Container [email protected]
Codec ID : V_MPEG4/ISO/AVC
Duration : 1h 48mn
Bit rate : 4 246 Kbps
Width : 1 152 pixels
Height : 492 pixels
Display aspect ratio : 2.35:1
Frame rate : 24.000 fps
Resolution : 24 bits
Colorimetry : 4:2:0
Scan type : Progressive
Bits/(Pixel*Frame) : 0.312
Stream size : 3.21 GiB (82%)
Title : vovaniez
Writing library : x264 core 116 r2074kMod 2641b9e
Encoding settings : cabac=1 / ref=6 / deblock=1:-2:-2 / analyse=0x3:0x113 / me=umh / subme=11 / psy=1 / fade_compensate=0.00 / psy_rd=1.08:0.10 / mixed_ref=1 / me_range=32 / chroma_me=1 / trellis=2 / 8x8dct=1 / cqm=0 / deadzone=21,11 / fast_pskip=1 / chroma_qp_offset=-3 / threads=3 / sliced_threads=0 / nr=0 / decimate=1 / interlaced=0 / bluray_compat=0 / constrained_intra=0 / bframes=9 / b_pyramid=2 / b_adapt=2 / b_bias=0 / direct=3 / weightb=1 / open_gop=0 / weightp=2 / keyint=250 / keyint_min=24 / scenecut=40 / intra_refresh=0 / rc_lookahead=60 / rc=crf / mbtree=0 / crf=18.6000 / qcomp=0.60 / qpmin=0 / qpmax=69 / qpstep=4 / vbv_maxrate=50000 / vbv_bufsize=62500 / crf_max=0.0 / nal_hrd=none / ip_ratio=1.30 / pb_ratio=1.20 / aq=3:0.85
Matrix coefficients : BT.709-5, BT.1361, IEC 61966-2-4 709, SMPTE RP177

Audio #1
ID : 2
Format : AC-3
Format/Info : Audio Coding 3
Codec ID : A_AC3
Duration : 1h 48mn
Bit rate mode : Constant
Bit rate : 384 Kbps
Channel(s) : 6 channels
Channel positions : Front: L C R, Surround: L R, LFE
Sampling rate : 48.0 KHz
Stream size : 298 MiB (7%)
Title : Русский
Language : Russian

Audio #2
ID : 3
Format : AC-3
Format/Info : Audio Coding 3
Codec ID : A_AC3
Duration : 1h 48mn
Bit rate mode : Constant
Bit rate : 448 Kbps
Channel(s) : 6 c
057d0f26c832784da56d3c5fe846a9a2be7dd2a6Таможня дает добро / Rien à déclarer (Дэни Бун, Комедия, 2010) [BDRip - AVC, Дублированный + Оригинал + SUB] Таможня дает добро / Rien à déclarer (Дэни Бун, Комедия, 2010) [BDRip - AVC, Дублированный + Оригинал + SUB] " />

Аплоадер: Админ, дата: 16-06-2012, 19:48, торрент скачан: 359 раз

Понравилась раздача? Посмотрите эти:
  • Таможня дает добро / Rien а declarer (Дэни Бун, Комедия, 2010) [BDRip-AVC, ...
  • Железная леди / The Iron Lady (Филлида Ллойд, драма, биография, история, 20 ...
  • Замуж на 2 дня / Un plan parfait (Паскаль Шомель, Мелодрама, комедия, прикл ...
  • Толстяк на ринге / Here Comes the Boom (Фрэнк Корачи, Боевик, комедия, 201 ...
  • Таможня дает добро / Rien а declarer (Дэни Бун, Бенуа Пульворд, комедия, 20 ...
  • Таможня дает добро / Rien а declarer (Дэни Бун, комедия, 2010) [BDRip-AVC, ...
  • Таможня дает добро / Rien а declarer (Дэни Бун, комедия, 2010) [HDRip-AVC, ...
  • Братья Гримм / The Brothers Grimm (Терри Гиллиам, фэнтези, триллер, комедия ...
  • Аноним / Anonymous (Роланд Эммерих, триллер, драма, 2011) [BDRip-AVC, Профе ...
  • Мартовские иды / The Ides of March (Джордж Клуни / George Clooney, драма, 2 ...
  • Персонаж / Stranger Than Fiction (Марк Форстер, Комедия, драма, фантастика, ...
  • Миссия невыполнима: Протокол Фантом / Mission: Impossible - Ghost Protocol ...
  • Выпускной / Prom (Джо Нуссбаум, драма, мелодрама, комедия, 2011) [BDRip-AVC ...
  • Опасный метод / A Dangerous Method (Дэвид Кроненберг, триллер, драма, биогр ...
  • Проект X: Дорвались / Project X (Нима Нуризаде, комедия, 2012) [BDRip-AVC, ...
  • Человек-волк [Театральная версия] / The Wolfman [Theatrical cut] (Джо Джонс ...
  • Сутенер / Le mac (Паскаль Бюрдо / Pascal Bourdiaux, комедия, криминал, 2010 ...
  • Мой парень из зоопарка / Zookeeper (Фрэнк Корачи, мелодрама, комедия, семей ...
  • Таможня дает добро / Rien а declarer (Дэни Бун, комедия, 2010) [BDRip 720p, ...
  • Такси 2 / Taxi 2 (Жерар Кравчик, боевик, комедия, криминал, 2000) [BDRip 72 ...
  • Джок / Jock (Дункан МакНили, мультфильм, комедия, приключения, семейный, 20 ...
  • Путешествие на край Вселенной / Journey to the Edge of the Universe (Явар А ...
  • Mylene Farmer / Du Temps [2011, Pop, HDTVRip]
  • Mylene Farmer / Bleu Noir [2011, Pop, HDTVRip]
  • Таможня дает добро / Rien а declarer (Дэни Бун, комедия, 2010) [HDRip, Дуб ...
  • Информация
    Посетители, находящиеся в группе Гости, не могут оставлять комментарии к данной публикации.