вход на сайт

Имя пользователя :
Пароль :

Восстановление пароля Регистрация
Проект X: Дорвались / Project X (Нима Нуризаде, комедия, 2012) [BDRip-AVC, Дубляж + Оригинал + Субтитры]
Рейтинг:
(голосов: 1)



[img]{THEME}/images/logopost.png[/img]



Проект X: Дорвались / Project X
♥ Год выпуска: 2012
♥ Страна: США
♥ Производство: Green Hat Films / Silver Pictures
♥ Жанр: Комедия

♥ Режиссёр: Нима Нуризаде
♥ В ролях: Томас Манн, Оливер Купер, Джонатан Даниэль Браун, Дакс Флэйм, Кирби Блисс Блэнтон, Брэйди Эндер, Ник Нервис, Алексис Кнапп, Майлз Теллер, Питер Маккензи.

♥ Перевод: Дублированный + Оригинал
♥ Субтитры: Русские (форс. + полные), Английские |.srt|

♥ Описание: Сюжет вращается вокруг троих одноклассников, решивших устроить крутую вечеринку и прославиться на всю округу — правда, удержать события под контролем у них не получилось.


♥ Релиз от:
♥ Автор рипа: Vaippp

♥ Качество: BDRip-AVC
♥ Продолжительность: 01:27:52

♥ Формат: MKV
♥ Видео кодек: x264
♥ Аудио кодек: AC3
♥ Видео: 1024x576 (16:9), 23.976 fps, AVC ~2499 kbps avg, 0.177 bit/pixel
♥ Аудио: 48 kHz, AC3 Dolby Digital, 3/2 (L,C,R,l,r) + LFE ch, ~384.00 kbps avg [rus]
♥ Аудио: 48 kHz, AC3 Dolby Digital, 3/2 (L,C,R,l,r) + LFE ch, ~384.00 kbps avg [eng]
MediaInfo: ▼TextGeneral
Unique ID : 194933855793916413741876602420007290183 (0x92A6E51F0977578E9350ED59D65C4547)
Complete name : I:...Proekt.X.Dorvalis.2012.Theatrical.Version.DUAL.BDRip-AVC.AC3.-HQ-ViDEO.mkv
Format : Matroska
Format version : Version 2
File size : 2.17 GiB
Duration : 1h 33mn
Overall bit rate : 3 333 Kbps
Movie name : Project X / Theatrical Version (2012) - HQ-ViDEO
Encoded date : UTC 2012-06-15 05:52:01
Writing application : mkvmerge v5.6.0 (Kenya Kane) built on May 27 2012 16:44:04
Writing library : libebml v1.2.3 + libmatroska v1.3.0
Video
ID : 1
Format : AVC
Format/Info : Advanced Video Codec
Format profile : [email protected]
Format settings, CABAC : Yes
Format settings, ReFrames : 13 frames
Codec ID : V_MPEG4/ISO/AVC
Duration : 1h 33mn
Bit rate : 2 499 Kbps
Width : 1 024 pixels
Height : 576 pixels
Display aspect ratio : 16:9
Frame rate : 23.976 fps
Color space : YUV
Chroma subsampling : 4:2:0
Bit depth : 8 bits
Scan type : Progressive
Bits/(Pixel*Frame) : 0.177
Stream size : 1.63 GiB (75%)
Title : Vaippp
Writing library : x264 core 125 r2200 999b753
Encoding settings : cabac=1 / ref=13 / deblock=1:-1:-1 / analyse=0x3:0x133 / me=umh / subme=10 / psy=1 / psy_rd=1.00:0.05 / mixed_ref=1 / me_range=32 / chroma_me=1 / trellis=2 / 8x8dct=1 / cqm=0 / deadzone=21,11 / fast_pskip=1 / chroma_qp_offset=-3 / threads=12 / lookahead_threads=2 / sliced_threads=0 / nr=0 / decimate=1 / interlaced=0 / bluray_compat=0 / constrained_intra=0 / bframes=13 / b_pyramid=2 / b_adapt=2 / b_bias=0 / direct=1 / weightb=1 / open_gop=0 / weightp=2 / keyint=240 / keyint_min=22 / scenecut=40 / intra_refresh=0 / rc_lookahead=60 / rc=crf / mbtree=0 / crf=19.7 / qcomp=0.65 / qpmin=0 / qpmax=40 / qpstep=4 / vbv_maxrate=50000 / vbv_bufsize=62500 / crf_max=0.0 / nal_hrd=none / ip_ratio=1.40 / pb_ratio=1.25 / aq=1:0.80
Language : English
Default : Yes
Forced : No
Color primaries : BT.709-5, BT.1361, IEC 61966-2-4, SMPTE RP177
Transfer characteristics : BT.709-5, BT.1361
Matrix coefficients : BT.709-5, BT.1361, IEC 61966-2-4 709, SMPTE RP177
Audio #1
ID : 2
Format : AC-3
Format/Info : Audio Coding 3
Mode extension : CM (complete main)
Format settings, Endianness : Big
Codec ID : A_AC3
Duration : 1h 33mn
Bit rate mode : Constant
Bit rate : 384 Kbps
Channel(s) : 6 channels
Channel positions : Front: L C R, Side: L R, LFE
Sampling rate : 48.0 KHz
Bit depth : 16 bits
Compression mode : Lossy
Stream size : 256 MiB (12%)
Title : DUB @ R5
Language : Russian
Default : Yes
Forced : Yes
Audio #2
ID : 3
Format : AC-3
Format/Info : Audio Coding 3
Mode extension : CM (complete main)
Format settings, Endianness : Big
Codec ID : A_AC3
Duration : 1h 33mn
Bit rate mode : Constant
Bit rate : 384 Kbps
Channel(s) : 6 channels
Channel positions : Front: L C R, Side: L R, LFE
Sampling rate : 48.0 KHz
Bit depth : 16 bits
Compression mode : Lossy
Stream size : 256 MiB (12%)
Title : Original
Language : English
Default : No
Forced : No
Text #1
ID :
d05502678723115c12fccd40eb38687ae75c4ba0Проект X: Дорвались / Project X (Нима Нуризаде, комедия, 2012) [BDRip-AVC, Дубляж + Оригинал + Субтитры] Проект X: Дорвались / Project X (Нима Нуризаде, комедия, 2012) [BDRip-AVC, Дубляж + Оригинал + Субтитры] " />

Аплоадер: Админ, дата: 15-06-2012, 12:41, торрент скачан: 359 раз

Понравилась раздача? Посмотрите эти:
  • Проект X: Дорвались / Project X / Extended Cut (Нима Нуризаде, комедия, 201 ...
  • Проект X: Дорвались / Project X [EXTENDED] (Нима Нуризаде, комедия, 2012) [ ...
  • Проект X: Дорвались / Project X [EXTENDED] (Нима Нуризаде, комедия, 2012) [ ...
  • Проект Х: Дорвались/ Progect X(Нима Нуризаде, комедия, 2012) [960 x 640] [D ...
  • Толстяк на ринге / Here Comes the Boom (Фрэнк Корачи, Боевик, комедия, 201 ...
  • Толстяк на ринге / Here Comes the Boom (Фрэнк Корачи, Боевик, комедия, 201 ...
  • Джон Картер / John Carter (Эндрю Стэнтон, Фантастика, 2012) [BDRip-AVC, Дуб ...
  • Проект X: Дорвались / Project X (Нима Нуризаде, комедия, 2012) [BDRip - AVC ...
  • Проект X: Дорвались [Театральная версия] / Project X [Theatrical Version] ( ...
  • Проект X: Дорвались [Театральная версия] / Project X [Theatrical Version] ( ...
  • Проект X: Дорвались / Project X (Нима Нуризаде, комедия, 2012) [НDRip - AVC ...
  • Проект X: Дорвались [Расширенная версия] / Project X [Extended Cut] (Нима Н ...
  • Проект X: Дорвались / Project X (Нима Нуризаде, комедия, 2012) [BDRip 720p, ...
  • Хроника [Режиссёрская версия] / Chronicle [Directors cut] (Джошуа Транк, фа ...
  • Мачо и ботан / 21 Jump Street (Фил Лорд, Крис Миллер, боевик, комедия, 2012 ...
  • Проект X: Дорвались [Театральная версия] / Project X [Theatrical Cut] (Нима ...
  • Любовь С Препятствиями / Un Bonheur Narrive Jamais Seul (Джеймс Хат, Мелодр ...
  • Проект X: Дорвались / Project X [EXTENDED] (Нима Нуризаде, комедия, 2012) [ ...
  • Футбольный клуб / Чемпионат Европы 2012 / НТВ+ [Футбол, 08.06.2012, HDTVRip ...
  • Проект X: Дорвались / Project X (Нима Нуризаде, комедия, 2012) [320x176] [H ...
  • Проект X: Дорвались / Project X (Нима Нуризаде, комедия, 2012) [HDRip, Дубл ...
  • Проект X: Дорвались / Project X / Theatrical Cut (Нима Нуризаде, комедия, 2 ...
  • Проект X: Дорвались / Project X [Extended] (Нима Нуризаде, комедия, 2012) [ ...
  • Проект X: Дорвались / Project X (Нима Нуризад, комедия, 2012) [DVD9, Профес ...
  • [iPhone, iPod] Проект Х / Project X (Нима Нуризаде, комедия, 2012) [480х32 ...
  • Информация
    Посетители, находящиеся в группе Гости, не могут оставлять комментарии к данной публикации.