вход на сайт

Имя пользователя :
Пароль :

Восстановление пароля Регистрация
Свадебный разгром / A Few Best Men (Стефан Эллиотт, комедия, 2011) [BDRip-AVC, Дублированное, +Оригинал]
Рейтинг:
(голосов: 1)



[img]{THEME}/images/logopost.png[/img]



«Свадебный разгром / A Few Best Men»

«Этот мальчишник вам не по зубам!»

Год выпуска: 2011
Страна: СШАВеликобританияАвстралия
Производство: Auburn Entertainment, Quickfire Films, Unthank Films
Жанр: комедия

Режиссёр: Стефан Эллиотт
В ролях: Ксавьер Сэмюэл, Ребел Уилсон, Оливия Ньютон-Джон, Крис Маршалл, Элизабет Дебики, Кевин Бишоп, Лаура Брент, Тим Драксл, Стив Ле Маркванд, Марго Харрис

Перевод: Дублированное, +Оригинал
Озвучка: Прохор Чеховской, Иван Жарков, Диомид Виноградов, Сергей Смирнов, Ольга Зубкова
Субтитры: нет

Описание
Как празднуют свадьбу в Австралии? Да круче, чем новый год в России. Шикарная церемония, море алкоголя и тройка верных друзей, решивших оторваться на полную катушку. Сможет ли настоящая любовь пережить эти испытания?



Доп. информация
Премьеры ▼премьера (мир)14 октября 2011
премьера (РФ)3 мая 2012, «Наше Кино», «Премиум Фильм»
релиз на Blu-Ray 7 июня 2012, «CP Дистрибуция»
релиз на DVD 7 июня 2012, «CP Дистрибуция»
MediaInfo ▼TextОбщее
Уникальный идентификатор : 247749579688204244317371165911036338657 (0xBA62D55B3723EE1487EA6108FB6221E1)
Полное имя : D:DownloadsСвадебный разгром.2011.BDRip.AVC.mkv
Формат : Matroska
Версия формата : Version 2
Размер файла : 2,44 Гбайт
Продолжительность : 1 ч. 36 м.
Общий поток : 3610 Кбит/сек
Название фильма : Release by ==nnlabetik==
Дата кодирования : UTC 2012-06-06 02:20:10
Программа кодирования : mkvmerge v5.6.0 (Kenya Kane) built on May 27 2012 16:44:04
Библиотека кодирования : libebml v1.2.3 + libmatroska v1.3.0

Видео
Идентификатор : 1
Формат : AVC
Формат/Информация : Advanced Video Codec
Профиль формата : [email protected]
Параметр CABAC формата : Да
Параметр ReFrames формата : 9 кадров
Идентификатор кодека : V_MPEG4/ISO/AVC
Продолжительность : 1 ч. 36 м.
Битрейт : 2699 Кбит/сек
Ширина : 1024 пикселя
Высота : 432 пикселя
Соотношение сторон : 2,35:1
Частота кадров : 23,976 кадра/сек
Цветовое пространство : YUV
Субдискретизация насыщенности : 4:2:0
Битовая глубина : 8 бит
Тип развёртки : Прогрессивная
Бит/(Пиксели*Кадры) : 0.254
Размер потока : 1,78 Гбайт (73%)
Библиотека кодирования : x264 core 125 r2200 999b753
Настройки программы : cabac=1 / ref=9 / deblock=1:-2:-2 / analyse=0x3:0x113 / me=umh / subme=11 / psy=1 / psy_rd=1.00:0.00 / mixed_ref=1 / me_range=32 / chroma_me=1 / trellis=2 / 8x8dct=1 / cqm=0 / deadzone=21,11 / fast_pskip=1 / chroma_qp_offset=-2 / threads=12 / lookahead_threads=2 / sliced_threads=0 / nr=0 / decimate=1 / interlaced=0 / bluray_compat=0 / constrained_intra=0 / bframes=6 / b_pyramid=2 / b_adapt=2 / b_bias=0 / direct=3 / weightb=1 / open_gop=0 / weightp=2 / keyint=240 / keyint_min=23 / scenecut=40 / intra_refresh=0 / rc=2pass / mbtree=0 / bitrate=2699 / ratetol=1.0 / qcomp=0.60 / qpmin=0 / qpmax=69 / qpstep=4 / cplxblur=20.0 / qblur=0.5 / ip_ratio=1.40 / pb_ratio=1.30 / aq=1:1.00
Язык : English
Default : Да
Forced : Нет

Аудио #1
Идентификатор : 2
Формат : AC-3
Формат/Информация : Audio Coding 3
Расширение режима : CM (complete main)
Идентификатор кодека : A_AC3
Продолжительность : 1 ч. 36 м.
Вид битрейта : Постоянный
Битрейт : 448 Кбит/сек
Каналы : 6 каналов
Расположение каналов : Front: L C R, Side: L R, LFE
Частота : 48,0 КГц
Битовая глубина : 16 бит
Метод сжатия : С потерями
Размер потока : 310 Мбайт (12%)
Язык : Russian
Default : Да
Forced : Нет

Аудио #2
Идентификатор : 3
Формат : AC-3
Формат/Информация : Audio Coding 3
Расширение режима : CM (complete main)
Идентификатор кодека : A_AC3
Продолжительность : 1 ч. 36 м.
Вид битрейта : Постоянный
Битрейт : 448 Кбит/сек
Каналы : 6 каналов
Расположение каналов : Front: L C R, Side: L R, LFE
Частота : 48,0 КГц
Битовая глубина : 16 бит
Метод сжатия : С потерями
Размер потока : 310 Мбайт (12%)
Язык : English
Default : Нет
Forced : Нет

Текст
Идент
1fae09c28672dcaf0110780e98184aa25266479aСвадебный разгром / A Few Best Men (Стефан Эллиотт, комедия, 2011) [BDRip-AVC, Дублированное, +Оригинал] Свадебный разгром / A Few Best Men (Стефан Эллиотт, комедия, 2011) [BDRip-AVC, Дублированное, +Оригинал] " />

Аплоадер: Админ, дата: 6-06-2012, 13:48, торрент скачан: 359 раз

Понравилась раздача? Посмотрите эти:
  • Погнали! / Getaway (Кортни Соломон, боевик, криминал, 2013) [BDRip 1080p, П ...
  • Мальчишник: Часть III / The Hangover Part III (Тодд Филлипс, комедия, 2013) ...
  • Заклятие / The Conjuring (Джеймс Ван, ужасы, триллер, 2013) [BDRip 720р, Ду ...
  • Заклятие / The Conjuring (Джеймс Ван, ужасы, триллер, 2013) [BDRip 1080p, Д ...
  • Рикошет / Ricochet (Ник Гомез, драма, детектив, 2011) [BDRip-AVC, Профессио ...
  • Даю год / I Give It a Year (Дэн Мазер, мелодрама, комедия, 2012) [BDRip-AVC ...
  • Толстяк на ринге / Here Comes the Boom (Фрэнк Корачи, Боевик, комедия, 2012 ...
  • Суррогат / The Sessions (Бен Луин, Драма, 2012) [BDRip-AVC, Профессиональны ...
  • Приходите завтра (Евгений Ташков, мелодрама, комедия, 1963) [BDRip - AVC, Н ...
  • Убойное Рождество Гарольда и Кумара / A Very Harold & Kumar Christmas (Тодд ...
  • Эд Вуд / Ed Wood (Тим Бёртон, драма, комедия, биография, 1994) [BDRip-AVC, ...
  • Помогите Стать Отцом / Not Suitable For Children (Питер Темплмен, Мелодрама ...
  • Заражение / Contagion (Стивен Содерберг, Фантастика, 2011) [BDRip 1080p, Пр ...
  • Свадебный разгром / A Few Best Men (Стефан Эллиотт, Комедия, 2011) [BDRip 7 ...
  • Сейчас самое время / Now Is Good (Ол Паркер, Мелодрама, 2012) [BDRip-AVC, П ...
  • Свадебный разгром / A Few Best Men (Стефан Эллиотт, Комедия, 2011) [HDRip , ...
  • Свадебный разгром / A Few Best Men (Стефан Эллиотт, Комедия, 2011) [HDRip, ...
  • Свадебный разгром / A Few Best Men (Стефан Эллиотт, Комедия, 2011) [BDRip, ...
  • Свадебный разгром / A Few Best Men (Стефан Эллиотт, Комедия, 2011) [320x240 ...
  • Свадебный разгром / A Few Best Men (Стефан Эллиотт, Комедия, 2011) [480x200 ...
  • Информация
    Посетители, находящиеся в группе Гости, не могут оставлять комментарии к данной публикации.