вход на сайт

Имя пользователя :
Пароль :

Восстановление пароля Регистрация
Свидание (Юсуп Бахшиев, комедия, 2012) [BDRip-AVC, Не требуется]
Рейтинг:
(голосов: 1)



[img]{THEME}/images/logopost.png[/img]



Свидание

Год выпуска: 2012
Страна: Россия
Производство: Централ Партнершип
Жанр: комедия

Режиссёр: Юсуп Бахшиев
В ролях: Владимир Кристовский, Екатерина Климова, Сергей Бадюк, Алёна Бабенко, Константин Мурзенко, Андрей Кайков, Григорий Сиятвинда, Нелли Неведина, Ольга Карпович, Геннадий Венгеров

Перевод: Не требуется
Субтитры: Отсутствуют

Описание: Молодой, неженатый, преуспевающий хирург Дмитрий Горин по совету сестры назначает свидание ее подруге - привлекательной учительнице Ане Светловой. Прекрасное создание, попав под действие алкоголя, на деловом обеде, столь важном для Дмитрия, теряет над собой контроль, и торжественное мероприятие превращается в кошмар.
В довершение ко всему преследуемый похожим на Терминатора поклонником Ани, Дима остается без работы, любимого мотоцикла и ему грозит тюремное заключение. Начавшись столь невинно, свидание превращается в бесконечную череду комичных ситуаций, погонь и драк, что, впрочем, не помешает возникшим чувствам перерасти в настоящую любовь.

IMDB: 4.70 (8)
КиноПоиск: 4.591 (346)

Качество: BDRip-AVC | Сэмпл
Продолжительность: 01:23:32 час.

Формат: MKV
Видео кодек: AVC
Аудио кодек: AC3
Видео: 1 280х544 (2.35:1), 25.000 fps, AVC ~3 572 Kbps, 0.205 bit/pixel
Аудио#1: 48 kHz, AC3 Dolby Digital, 3/2 (L,C,R,l,r) + LFE ch, ~640 kbps(RUS)

Дата премьеры (мир): 19 апреля 2012
Дата премьеры (РФ): 19 апреля 2012, «Централ Партнершип»

MI ▼General
Unique ID : 238766358558496567780673958021821127216 (0xB3A0BA5BFB010868B73C7D6D3D3C5A30)
Complete name : Svidanie.2012.O.BDRip.720p.IRONCLUB.mkv
Format : Matroska
Format version : Version 2
File size : 2.51 GiB
Duration : 1h 23mn
Overall bit rate : 4 297 Kbps
Movie name : IRONCLUB
Encoded date : UTC 2012-06-03 03:55:48
Writing application : mkvmerge v4.9.1 (Ich will) built on Jul 11 2011 23:53:15
Writing library : libebml v1.2.1 + libmatroska v1.1.1

Video
ID : 1
Format : AVC
Format/Info : Advanced Video Codec
Format profile : [email protected]
Format settings, CABAC : Yes
Format settings, ReFrames : 12 frames
Codec ID : V_MPEG4/ISO/AVC
Duration : 1h 23mn
Bit rate : 3 572 Kbps
Width : 1 280 pixels
Height : 544 pixels
Display aspect ratio : 2.35me rate : 25.000 fps
Color space : YUV
Chroma subsampling : 4:2:0
Bit depth : 8 bits
Scan type : Progressive
Bits/(Pixel*Frame) : 0.205
Stream size : 2.08 GiB (83%)
Title : Svidanie.2012.O.BDRip.720p.IRONCLUB
Writing library : x264 core 120 r2164 da19765
Encoding settings : cabac=1 / ref=12 / deblock=1:-3:-3 / analyse=0x3:0x113 / me=umh / subme=10 / psy=1 / psy_rd=1.05:0.05 / mixed_ref=1 / me_range=24 / chroma_me=1 / trellis=2 / 8x8dct=1 / cqm=0 / deadzone=21,11 / fast_pskip=0 / chroma_qp_offset=-2 / threads=12 / sliced_threads=0 / nr=0 / decimate=1 / interlaced=0 / bluray_compat=0 / constrained_intra=0 / bframes=8 / b_pyramid=2 / b_adapt=2 / b_bias=0 / direct=3 / weightb=1 / open_gop=0 / weightp=2 / keyint=261 / keyint_min=26 / scenecut=40 / intra_refresh=0 / rc_lookahead=40 / rc=crf / mbtree=1 / crf=16.5 / qcomp=0.60 / qpmin=10 / qpmax=69 / qpstep=4 / vbv_maxrate=50000 / vbv_bufsize=62500 / crf_max=0.0 / nal_hrd=none / ip_ratio=1.40 / aq=1:1.00
Language : Russian
Default : Yes
Forced : No
Matrix coefficients : BT.709-5, BT.1361, IEC 61966-2-4 709, SMPTE RP177

Audio
ID : 2
Format : AC-3
Format/Info : Audio Coding 3
Mode extension : CM (complete main)
Format settings, Endianness : Big
Codec ID : A_AC3
Duration : 1h 23mn
Bit rate mode : Constant
Bit rate : 640 Kbps
Channel(s) : 6 channels
Channel positions : Front: L C R, Side: L R, LFE
Sampling rate : 48.0 KHz
Bit depth : 16 bits
Compression mode : Lossy
Stream size : 382 MiB (15%)
Title : AC3 640 kb/s
Language : Russian
Default : Yes
Forced : No

Menu
00:00:00.000 : :Chapter 01
00:00:34.000 : :Chapter 02
00:10:17.200 : :Chapter 03
00:19:41.680 : :Chapter 04
00:29:22.960 : :Chapter 05
00:40:23.440
a100bc2585a9bf98d7ad93e1c87f3c74d5f5421fСвидание (Юсуп Бахшиев, комедия, 2012) [BDRip-AVC, Не требуется] Свидание (Юсуп Бахшиев, комедия, 2012) [BDRip-AVC, Не требуется] " />

Аплоадер: Админ, дата: 3-06-2012, 18:28, торрент скачан: 359 раз

Понравилась раздача? Посмотрите эти:
  • Даю год / I Give It a Year (Дэн Мазер, Мелодрама, Комедия, 2013) [BDRip-AVC ...
  • О чём молчат девушки (Карен Оганесян, Комедия, 2013) [BDRip-AVC, Не требует ...
  • Снежная королева (Максим Свешников, Владлен Барбэ, Мультфильм, фэнтези, при ...
  • Свидание (Юсуп Бахшиев, комедия, 2012) [BDRip-AVC, Не требуется]
  • Свидание (Юсуп Бахшиев, комедия, 2012) [BDRip-AVC, Не требуется]
  • Бриллиантовая рука (Леонид Гайдай, комедия, криминал, приключения, 1968) [B ...
  • Смешарики. Начало (Денис Чернов, Мелодрама, 2011) [BDRip 1080p, Не требуетс ...
  • Схватка / The Grey (Джо Карнахан, Боевик, 2012) [BDRip 720p, Профессиональн ...
  • Запрещенная реальность (Константин Максимов, фантастика, боевик, 2009) [BDR ...
  • Выкрутасы (Леван Габриадзе, мелодрама, комедия, спорт, 2011) [ВDRip 720p, Н ...
  • Ю-571 / U-571 (Джонатан Мостоу, Боевик, 2000) [BDRip - AVC, Дубляж + Субтит ...
  • Белый тигр (Карен Шахназаров, военный, 2012) [BDRip 720p, Не требуется]
  • Джок / Jock (Дункан МакНили, мультфильм, комедия, приключения, семейный, 20 ...
  • Матч (Андрей Малюков, Драма, спорт, 2012) [BDRip 720p, Не требуется]
  • Любовь С Препятствиями / Un Bonheur Narrive Jamais Seul (Джеймс Хат, Мелодр ...
  • С новым годом, мамы! (Сарик Андреасян, Артем Аксененко, Дмитрий Грачев, Ком ...
  • Собачье сердце (Владимир Бортко, фантастика, драма, комедия, 1988) [BDRip 1 ...
  • Свидание (Юсуп Бахшиев, комедия, 2012) [DVD9, Не требуется]
  • Свидание (Юсуп Бахшиев, комедия, 2012) [HDRip, Не требуется]
  • Свидание (Юсуп Бахшиев, комедия, 2012) [HDRip, Не требуется]
  • Информация
    Посетители, находящиеся в группе Гости, не могут оставлять комментарии к данной публикации.