вход на сайт

Имя пользователя :
Пароль :

Восстановление пароля Регистрация
Дети сексу не помеха / Friends with Kids (Дженнифер Уэстфелд, комедия, 2011) [BDRip-AVC, Дубляж]
Рейтинг:
(голосов: 1)



[img]{THEME}/images/logopost.png[/img]



Дети сексу не помеха / Friends with Kids

Год выпуска: 2011
Страна: США
Производство: Red Granite Pictures, Points West Pictures, Locomotive
Жанр: комедия

Режиссёр: Дженнифер Уэстфелд
В ролях: Адам Скотт, Дженнифер Уэстфелд, Джон Хэмм, Кристен Уиг, Майя Рудольф, Криc О’Дауд, Меган Фокс, Эдвард Бёрнс, Оуэн Бенто, Келли Бишоп...

Перевод: Дубляж
Субтитры: Отсутствуют

Описание: Есть ли секс после свадьбы? Все знают: в медовый месяц — страстный, через пару лет — уже не очень. Но выход есть.
Джейсон и Джули решают завести ребенка, но при этом остаться только друзьями. Десять минут, девять месяцев — малыш готов. И уже Джейсон приударяет за шикарной брюнеткой, а Джули встречается с брутальным немцем. Но правда ли, что дети сексу не помеха?…

Сэмпл

IMDB: 6.30 (3 268)
КиноПоиск: 5.588 (256)

Качество: BDRip-AVC
Продолжительность: 01:48:30 час.


Формат: MKV
Видео кодек: AVC
Аудио кодек: AC3
Видео: 896x504 (16:9), 24 fps, AVC ~1 471 kbps avg, 0.136 bit/pixel
Аудио: 48 kHz, AC3 Dolby Digital, 3/2 (L,C,R,l,r) + LFE ch, ~448 kbps

Дата премьеры (мир): 9 сентября 2011
Дата премьеры (РФ): 3 мая 2012, «UPI»

MediaInfo ▼
Общее
Полное имя : Deti.seksu.ne.pomeha.2011.BDRip-AVC..mkv
Формат : Matroska
Версия формата : Version 2
Размер файла : 1,46 Гбайт
Продолжительность : 1 ч. 48 м.
Общий поток : 1921 Кбит/сек
Название фильма :Дети сексу не помеха
Дата кодирования : UTC 2012-05-31 05:42:01
Программа кодирования : mkvmerge v5.5.0 (Healer) built on Apr 6 2012 21:43:24
Библиотека кодирования : libebml v1.2.3 + libmatroska v1.3.0

Видео
Идентификатор : 1
Формат : AVC
Формат/Информация : Advanced Video Codec
Профиль формата : [email protected]
Параметр CABAC формата : Да
Параметр ReFrames формата : 11 кадров
Идентификатор кодека : V_MPEG4/ISO/AVC
Продолжительность : 1 ч. 48 м.
Битрейт : 1471 Кбит/сек
Ширина : 896 пикселей
Высота : 504 пикселя
Соотношение сторон : 16:9
Частота кадров : 24,000 кадра/сек
Цветовое пространство : YUV
Субдискретизация насыщенности : 4:2:0
Битовая глубина : 8 бит
Тип развёртки : Прогрессивная
Бит/(Пиксели*Кадры) : 0.136
Размер потока : 1,09 Гбайт (75%)
Заголовок : Friends with Kids
Библиотека кодирования : x264 core 119 r2106 07efeb4
Настройки программы : cabac=1 / ref=11 / deblock=1:-2:-1 / analyse=0x3:0x113 / me=umh / subme=9 / psy=1 / psy_rd=1.00:0.10 / mixed_ref=1 / me_range=32 / chroma_me=1 / trellis=2 / 8x8dct=1 / cqm=0 / deadzone=21,11 / fast_pskip=1 / chroma_qp_offset=-3 / threads=9 / sliced_threads=0 / nr=0 / decimate=1 / interlaced=0 / bluray_compat=0 / constrained_intra=0 / bframes=10 / b_pyramid=2 / b_adapt=2 / b_bias=0 / direct=3 / weightb=1 / open_gop=0 / weightp=2 / keyint=240 / keyint_min=23 / scenecut=40 / intra_refresh=0 / rc_lookahead=80 / rc=2pass / mbtree=1 / bitrate=1471 / ratetol=1.0 / qcomp=0.60 / qpmin=0 / qpmax=69 / qpstep=4 / cplxblur=20.0 / qblur=0.5 / ip_ratio=1.40 / aq=2:0.90
Язык : English
Default : Да
Forced : Нет

Аудио
Идентификатор : 2
Формат : AC-3
Формат/Информация : Audio Coding 3
Расширение режима : CM (complete main)
Параметр Endianness формата : Big
Идентификатор кодека : A_AC3
Продолжительность : 1 ч. 48 м.
Вид битрейта : Постоянный
Битрейт : 448 Кбит/сек
Каналы : 6 каналов
Расположение каналов : Front: L C R, Side: L R, LFE
Частота : 48,0 КГц
Битовая глубина : 16 бит
Метод сжатия : С потерями
Размер потока : 348 Мбайт (23%)
Заголовок : AC3 448 kbps DUB
Язык : Russian
Default : Да
Forced : Нет

Меню
00:00:00.000 : ru:1
00:07:00.541 : ru:2
00:13:01.708 : ru:3
00:16:58.083 : ru:4
00:22:46.958 : ru:5
00:30:47.333 : ru:6
00:38:35.166 : ru:7
00:42:48.458 : ru:8
00:50:03.958 : ru:9
00:57:55.625 : ru:10
01:01:01.583 : ru:11
01:07:09.166 : ru:12
01:16:16.375 : ru:13
01:23:22.791 : ru:14
01:29:51.916 : ru:15
01:37:44.416 : ru:16





&nbs
9fe628ea56425ba9af9c090fd51d724eaf1db757Дети сексу не помеха / Friends with Kids (Дженнифер Уэстфелд, комедия, 2011) [BDRip-AVC, Дубляж] Дети сексу не помеха / Friends with Kids (Дженнифер Уэстфелд, комедия, 2011) [BDRip-AVC, Дубляж] " />

Аплоадер: Админ, дата: 2-06-2012, 00:54, торрент скачан: 359 раз

Понравилась раздача? Посмотрите эти:
  • Одноклассники 2 / Grown Ups 2 (Деннис Дуган, Комедия, 2013) [BDRip-AVC, Про ...
  • Никто не выжил / No One Lives (Рюхэй Китамура, Триллер, ужасы, 2012) [BDRip ...
  • 21 и больше / 21 & Over (Джон Лукас, Скотт Мур, Комедия, 2013) [BDRip-AVC, ...
  • Толстяк на ринге / Here Comes the Boom (Фрэнк Корачи, Боевик, комедия, 2012 ...
  • Заражение / Contagion (Стивен Содерберг, триллер, драма, 2011) [BDRip-AVC, ...
  • Переростки / The Inbetweeners (Бен Палмер, Комедия, 2011) [BDRip-AVC, Профе ...
  • Бедная богатая девочка / Young Adult (Джейсон Райтман, драма, комедия, 2011 ...
  • Дети сексу не помеха / Friends with Kids (Дженнифер Уэстфелд, комедия, 2011 ...
  • Закон доблести / Act of Valor (Майк МакКой, Скотт Во, боевик, триллер, прик ...
  • Дети сексу не помеха / Friends with Kids (Дженнифер Уэстфелд, комедия, 2011 ...
  • Американский пирог: Все в сборе / American Reunion (Джон Харвитц, Хейден Ш ...
  • Медальон / Stolen (Саймон Уэст, Боевик, триллер, 2012) [BDRip-AVC, Дубляж]
  • Убойное Рождество Гарольда и Кумара / A Very Harold & Kumar Christmas (Тодд ...
  • Дети сексу не помеха / Friends with Kids (Дженнифер Уэстфелд, комедия, 2011 ...
  • Дети сексу не помеха / Friends with Kids (Дженнифер Уэстфелд, комедия, 2011 ...
  • Лоракс: Серенада / The Lorax: Serenade (Кайл Балда, мультфильм, комедия, му ...
  • Нико 2 / Niko 2: Lentajaveljekset (Кари Юуусонен, Юрген Лердам, Мультфильм, ...
  • Дети сексу не помеха / Friends with Kids (Дженнифер Уэстфелд, комедия, 2011 ...
  • Дети сексу не помеха / Friends with Kids (Дженнифер Уэстфелд, комедия, 2011 ...
  • Дети сексу не помеха / Friends with Kids (Дженнифер Уэстфелд, Комедия, 2011 ...
  • Информация
    Посетители, находящиеся в группе Гости, не могут оставлять комментарии к данной публикации.