вход на сайт

Имя пользователя :
Пароль :

Восстановление пароля Регистрация
И в бедности и в богатстве / For Richer of Poorer (Брайан Спайсер, комедия 1997) [DVDRip-AVC, Профессиональный (многоголосый, закадровый) + Оригинал +Sub]
Рейтинг:
(голосов: 1)



[img]{THEME}/images/logopost.png[/img]



И в бедности, и в богатстве / For Richer or Poorer

Год выпуска: 1997
Страна: США
Производство: Sheinberg Productions, The Bubble Factory, Universal Pictures, Yorktown Productions
Жанр: комедия

Режиссёр: Брайан Спайсер
В ролях: Тим Аллен, Керсти Элли, Джей О. Сэндерс, Майкл Лернер, Уэйн Найт, Ларри Миллер, Мигель А. Нуньес мл., Меган Кэвэна, Джон Пайпер-Фергюсон, Кэрри Престон

Перевод: Профессиональный (многоголосый закадровый) + Оригинал
Субтитры: английские

Описание: Брэд и Кэролин — супружеская пара, живущая в престижном районе Нью — Йорка. Однажды махинации бухгалтера семьи приводят к тому, что супруги оказываются должны налоговым органам более трех миллионов долларов.

Брэд и Кэролин решают исчезнуть из города и находят убежище на ферме у своих дальних родственников в Пенсильвании.

Супруги вынуждены жить простой сельской жизнью и в результате понимают, что деньги не самая главная вещь в жизни.Дата премьеры (мир): 12 декабря 1997
Качество: DVDRip-AVC
Продолжительность: 01:50:43

Автор рипа: Enclave76

Формат: MKV
Видео кодек: AVC
Аудио кодек: AC3
Видео: [email protected] (2.35:1), 25 fps, AVC ~2100 Kbps, 0.26 bit/pixel
Аудио: 48 kHz, AC3, 2 ch, ~192.00 kbps avg - Профессиональный (многоголосый, закадровый)
Аудио: 48 kHz, AC3, 6 ch, ~448.00 kbps avg - Оригинал

Mediainfo ▼General
Complete name : E:...For.Richer.or.Poorer.1997.PAL.DVDRip.x264.AC3.Rus.Eng-E76.mkv
Format : Matroska
Format version : Version 2
File size : 2.13 GiB
Duration : 1h 50mn
Overall bit rate : 2 751 Kbps
Movie name : For.Richer.or.Poorer.1997.PAL.DVDRip.x264.AC3.Rus.Eng-E76
Encoded date : UTC 2012-05-25 06:28:29
Writing application : mkvmerge v5.2.1 (A Far Off Place) built on Jan 2 2012 23:21:10
Writing library : libebml v1.2.3 + libmatroska v1.3.0
Video
ID : 1
Format : AVC
Format/Info : Advanced Video Codec
Format profile : [email protected]
Format settings, CABAC : Yes
Format settings, ReFrames : 14 frames
Codec ID : V_MPEG4/ISO/AVC
Duration : 1h 50mn
Bit rate : 2 057 Kbps
Width : 718 pixels
Height : 436 pixels
Display aspect ratio : 2.35:1
Original display aspect ratio : 1.647
Frame rate : 25.000 fps
Color space : YUV
Chroma subsampling : 4:2:0
Bit depth : 8 bits
Scan type : Progressive
Bits/(Pixel*Frame) : 0.263
Stream size : 1.59 GiB (75%)
Title : Encode by Enclave76
Writing library : x264 core 124 r2197kMod 69a0443
Encoding settings : cabac=1 / ref=14 / deblock=1:-3:-3 / analyse=0x3:0x133 / me=umh / subme=11 / psy=1 / fade_compensate=0.00 / psy_rd=1.00:0.00 / mixed_ref=1 / me_range=64 / chroma_me=1 / trellis=2 / 8x8dct=1 / cqm=0 / deadzone=21,11 / fast_pskip=1 / chroma_qp_offset=-2 / threads=6 / sliced_threads=0 / nr=0 / decimate=1 / interlaced=0 / bluray_compat=0 / constrained_intra=0 / bframes=10 / b_pyramid=2 / b_adapt=2 / b_bias=0 / direct=1 / weightb=1 / open_gop=0 / weightp=2 / keyint=250 / keyint_min=25 / scenecut=40 / intra_refresh=0 / rc_lookahead=40 / rc=crf / mbtree=0 / crf=17.0000 / qcomp=0.60 / qpmin=0 / qpmax=69 / qpstep=4 / vbv_maxrate=17500 / vbv_bufsize=14000 / crf_max=0.0 / nal_hrd=none / ip_ratio=1.40 / pb_ratio=1.30 / aq=3:1.00 / zones=163740,166079,q=30
Language : English
Matrix coefficients : BT.470-6 System B, BT.470-6 System G, BT.601-6 625, BT.1358 625, BT.1700 625 PAL, BT.1700 625 SECAM, IEC 61966-2-4 601
Audio #1
ID : 2
Format : AC-3
Format/Info : Audio Coding 3
Mode extension : CM (complete main)
Codec ID : A_AC3
Duration : 1h 50mn
Bit rate mode : Constant
Bit rate : 192 Kbps
Channel(s) : 2 channels
Channel positions : Front: L R
Sampling rate : 48.0 KHz
Bit depth : 16 bits
Compression mode : Lossy
Stream size : 152 MiB (7%)
Title : MVO
Language : Russian
Audio #2
ID : 3
Format : AC-3
Format/Info : Audio Coding 3
Mode extension : CM (complete main)
Codec ID : A_AC3
Duration : 1h 50mn
Bit rate mode : Constant
Bit rate : 448 Kbps
Channel(s) : 6 channels
Channel positions : Front: L C R, Si
49cd4be49f4eae926d8630167d5ddea56a097923И в бедности и в богатстве / For Richer of Poorer (Брайан Спайсер, комедия 1997) [DVDRip-AVC, Профессиональный (многоголосый, закадровый) + Оригинал +Sub] И в бедности и в богатстве / For Richer of Poorer (Брайан Спайсер, комедия 1997) [DVDRip-AVC, Профессиональный (многоголосый, закадровый) + Оригинал +Sub] " />

Аплоадер: Админ, дата: 28-05-2012, 09:44, торрент скачан: 359 раз

Понравилась раздача? Посмотрите эти:
  • И в бедности и в богатстве / For Richer or Poorer (Брайан Спайсер, Комедия ...
  • За кадром... / In a World...(Лэйк Белл, комедия, 2013) [BDRip-AVC, Професси ...
  • Сыщик / Sleuth (Кеннет Брэна, Триллер, драма, детектив, 2007) [BDRip-AVC, П ...
  • Странный Томас / Odd Thomas (Стивен Соммерс, триллер, детектив, 2013) [DVDR ...
  • Смерть на похоронах / Death at a Funeral (Нил ЛаБут, комедия, 2010) [BDRip ...
  • Отдел 13 / Diamant 13 (Гайллз Бэхат, Боевик, триллер, криминал, 2009) [BDRi ...
  • Джекпот / Arme Riddere (Магнус Мартенс, Боевик, комедия, криминал, 2011) [B ...
  • Зубная фея 2 / Tooth Fairy 2 (Алекс Замм, комедия, семейный, 2012) [BDRip 7 ...
  • Властелин измерений / Grande ourse - La cle des possibles (Патрис Сов, фант ...
  • Аноним / Anonymous (Роланд Эммерих, триллер, драма, 2011) [BDRip-AVC, Профе ...
  • Мартовские иды / The Ides of March (Джордж Клуни / George Clooney, драма, 2 ...
  • Персонаж / Stranger Than Fiction (Марк Форстер, Комедия, драма, фантастика, ...
  • Сладкий ноябрь / Sweet November (Пэт О’Коннор, драма, мелодрама, 2001) [DVD ...
  • Римская империя: Август / Imperium: Augustus (Роджер Янг, драма, мелодрама, ...
  • Геркулес / Hercules (Рон Клементс, Джон Маскер, Мультфильм, 1997 г.)[HDTVRi ...
  • Похищенная / A Lonely Place to Die (Джулиан Джилби, триллер, криминал, прик ...
  • Chelsea - Season Review 2011-12 / Челси - Обзор Сезона 2011-12 [ Футбол, 20 ...
  • Mylene Farmer / Du Temps [2011, Pop, HDTVRip]
  • Mylene Farmer / Bleu Noir [2011, Pop, HDTVRip]
  • PBS: Природа – Гималаи / PBS: Nature – The Himalayas (Крис Морган, Докумен ...
  • Информация
    Посетители, находящиеся в группе Гости, не могут оставлять комментарии к данной публикации.