вход на сайт

Имя пользователя :
Пароль :

Восстановление пароля Регистрация
Клик: С пультом по жизни / Click (Фрэнк Корачи, Комедия, драма, мелодрама, 2006) [BDRip-AVC, Профессиональный (полное дублирование) + Профессиональный многоголосый [Superbit] + Оригинал + Субтитры]
Рейтинг:
(голосов: 1)



[img]{THEME}/images/logopost.png[/img]



Клик: С пультом по жизни / Click
«Представьте, что у вас появился уникальный пульт... Которым можно изменить всю вашу жизнь?»

Год выпуска: 2006 г.
Страна: США
Производство: Columbia Pictures Corporation, Revolution Studios, Happy Madison Productions
Жанр: Комедия, драма, мелодрама

Режиссёр: Фрэнк Корачи / Frank Coraci
В ролях: Адам Сэндлер, Кейт Бекинсейл, Кристофер Уокен, Дэвид Хэсселхофф, Генри Уинклер, Джули Кавнер, Шон Остин, Джозеф Кэстэнтон, Джона Хилл, Джейк Хоффман

Перевод: Профессиональный (полное дублирование) + Профессиональный (многоголосый закадровый) [Superbit] + Оригинал
Субтитры: Русские, английские

Описание:
Архитектору-трудоголику попадает в руки пульт дистанционного управления, с помощью которого можно прокручивать жизненные ситуации вперед или назад. Но техника есть техника — у нее всегда сюрприз в запасе.

Накопив собственную память, пульт сам начинает управлять скоростью перемотки и выбором момента жизни. Только теперь герой понимает, как неверно он использовал время…





Качество: BDRip-AVC (Исходник: Blu-Ray 1080p)
Продолжительность: 01:47:31 час.

Формат: MKV
Видео кодек: x264
Аудио кодек: AC3
Видео: 1024x554 (2.85:1), 23,976 fps, Advanced Video Codec ([email protected]) ~3 499 kbps avg, 0.257 bit/pixel
Аудио #1: 48 kHz, AC3 Dolby Digital, 3/2 (L,C,R,l,r) + LFE ch, ~448 kbps avg | Дубляж
Аудио #2: 48 kHz, AC3 Dolby Digital, 3/2 (L,C,R,l,r) + LFE ch, ~448 kbps avg | Профессиональный многоголосый [Superbit]
Аудио #3: 48 kHz, AC3 Dolby Digital, 3/2 (L,C,R,l,r) + LFE ch, ~448 kbps avg | Оригинал (Английский)

Дата премьеры (мир): 22 июня 2006
Дата премьеры (РФ): 3 августа 2006, «Каскад»

MediaInfo ▼TextФормат : Matroska
Версия формата : Version 2
Размер файла : 3,64 Гбайт
Продолжительность : 1 ч. 47 м.
Общий поток : 4845 Кбит/сек
Название фильма : Клик: С пультом по жизни / Click [2006]
Дата кодирования : UTC 2012-05-25 10:20:51
Программа кодирования : mkvmerge v5.3.0 (I could have danced) built on Feb 9 2012 10:38:07
Библиотека кодирования : libebml v1.2.3 + libmatroska v1.3.0

Видео
Идентификатор : 1
Формат : AVC
Формат/Информация : Advanced Video Codec
Профиль формата : [email protected]
Параметр CABAC формата : Да
Параметр ReFrames формата : 8 кадров
Идентификатор кодека : V_MPEG4/ISO/AVC
Продолжительность : 1 ч. 47 м.
Битрейт : 3499 Кбит/сек
Ширина : 1024 пикселя
Высота : 554 пикселя
Соотношение сторон : 1,85:1
Частота кадров : 23,976 кадра/сек
Цветовое пространство : YUV
Субдискретизация насыщенности : 4:2:0
Битовая глубина : 8 бит
Тип развёртки : Прогрессивная
Бит/(Пиксели*Кадры) : 0.257
Размер потока : 2,56 Гбайт (70%)
Заголовок : by 0ptimus
Библиотека кодирования : x264 core 124 r2197 69a0443
Настройки программы : cabac=1 / ref=8 / deblock=1:-2:-1 / analyse=0x3:0x113 / me=umh / subme=11 / psy=1 / psy_rd=1.00:0.20 / mixed_ref=1 / me_range=32 / chroma_me=1 / trellis=2 / 8x8dct=1 / cqm=0 / deadzone=21,11 / fast_pskip=0 / chroma_qp_offset=-3 / threads=4 / sliced_threads=0 / nr=0 / decimate=0 / interlaced=0 / bluray_compat=0 / constrained_intra=0 / bframes=6 / b_pyramid=2 / b_adapt=2 / b_bias=0 / direct=3 / weightb=1 / open_gop=0 / weightp=2 / keyint=240 / keyint_min=23 / scenecut=40 / intra_refresh=0 / rc=2pass / mbtree=0 / bitrate=3499 / ratetol=1.0 / qcomp=0.60 / qpmin=0 / qpmax=69 / qpstep=4 / cplxblur=20.0 / qblur=0.5 / ip_ratio=1.40 / pb_ratio=1.30 / aq=1:1.00
Язык : English
Default : Да
Forced : Нет

Аудио #1
Идентификатор : 2
Формат : AC-3
Формат/Информация : Audio Coding 3
Расширение режима : CM (complete main)
Параметр Endianness формата : Big
Идентификатор кодека : A_AC3
Продолжительность : 1 ч. 47 м.
Вид битрейта : Постоянный
Битрейт : 448 Кбит/сек
Каналы : 6 каналов
Расположение каналов : Front: L C R, Side: L R, LFE
Частота : 48,0 КГц
Битовая глубина : 16 бит
Метод сжатия : С потерями
Размер потока : 345 Мбайт (9%)
Заголовок : Дубляж
Язык : Russian
Default : Да
Forced : Нет

Аудио #2
Идентификатор : 3
Формат : AC-3
Формат/Инфор
c481e7b8ce3949fcb556f0071a4d2f696fe4c526Клик: С пультом по жизни / Click (Фрэнк Корачи, Комедия, драма, мелодрама, 2006) [BDRip-AVC, Профессиональный (полное дублирование) + Профессиональный многоголосый [Superbit] + Оригинал + Субтитры] Клик: С пультом по жизни / Click (Фрэнк Корачи, Комедия, драма, мелодрама, 2006) [BDRip-AVC, Профессиональный (полное дублирование) + Профессиональный многоголосый [Superbit] + Оригинал + Субтитры] " />

Аплоадер: Админ, дата: 26-05-2012, 21:42, торрент скачан: 359 раз

Понравилась раздача? Посмотрите эти:
  • Одноклассники 2 / Grown Ups 2 (Деннис Дуган, Комедия, 2013) [BDRip-AVC, Про ...
  • Ослепленный желаниями / Bedazzled (Харольд Рэмис, фэнтези, комедия, мелодра ...
  • Летучий отряд Скотланд-Ярда / The Sweeney (Ник Лав, Боевик, драма, криминал ...
  • Больше, чем любовь / A Lot Like Love (Найджел Коул, Драма, мелодрама, комед ...
  • Даю год / I Give It a Year (Дэн Мазер, мелодрама, комедия, 2012) [BDRip-AVC ...
  • Клик: с пультом по жизни / Click (Фрэнк Корачи, Фэнтези, драма, мелодрама, ...
  • Клик: С пультом по жизни / Click (Фрэнк Корачи, Фэнтези, драма, мелодрама, ...
  • Толстяк на ринге / Here Comes the Boom (Фрэнк Корачи, Боевик, комедия, 2012 ...
  • Суррогат / The Sessions (Бен Луин, Драма, 2012) [BDRip-AVC, Профессиональны ...
  • Клик - с пультом по жизни (Click)(DVDRip ~ 1,4Gb)(2006)
  • Клик: С пультом по жизни / Click (Фрэнк Корачи, фэнтези, драма, мелодрама, ...
  • Начинающие / Beginners (Майк Миллс / Mike Mills, драма, мелодрама, комедия, ...
  • Главное - не бояться! / A Little Bit of Heaven (Николь Кэссел / Nicole Kass ...
  • Большой / Big (Пенни Маршалл, комедия, мелодрама, семейный, 1988) [BDRip-AV ...
  • Подарок / Echelon Conspiracy (Грег Маркс, боевик, триллер, криминал, детект ...
  • Энни Холл / Annie Hall (Вуди Аллен, драма, мелодрама, комедия, 1977) [BDRip ...
  • Эд Вуд / Ed Wood (Тим Бёртон, драма, комедия, биография, 1994) [BDRip-AVC, ...
  • Четыре Рождества / Four Christmases (Сет Гордон, Драма, мелодрама, комедия, ...
  • Схватка / The Grey (Джо Карнахан, боевик, триллер, драма, приключения, 2012 ...
  • Большой отрыв БОБа / B.O.B.s Big Break (Роберт Портер, короткометражка, ан ...
  • Клик: С пультом по жизни / Click (Фрэнк Корачи, Комедия, 2006) [HDRip, Дубл ...
  • Клик: С пультом по жизни / Click (Фрэнк Корачи, 2006, Комедия,Фэнтези,Драма ...
  • Клик: С пультом по жизни / Click (Фрэнк Корачи, комедия, 2006) [BDRip 720p, ...
  • Клик: С пультом по жизни / Click (Фрэнк Корачи ,фэнтези, комедия, драма, 20 ...
  • Клик: С пультом по жизни / Click (Фрэнк Корачи / Frank Coraci, фэнтези, дра ...
  • Информация
    Посетители, находящиеся в группе Гости, не могут оставлять комментарии к данной публикации.