вход на сайт

Имя пользователя :
Пароль :

Восстановление пароля Регистрация
Вампирский засос / Vampires Suck (Джейсон Фридберг, Аарон Зельцер, комедия, 2010) [BDRip-AVC , Полное дублирование + Оригинал + Sub]
Рейтинг:
(голосов: 1)



[img]{THEME}/images/logopost.png[/img]



Вампирский засос / Vampires Suck
«Для тех, кого задолбали тупые вампирские фильмы»

Год выпуска: 2010
Страна: США
Производство: Regency Enterprises, Road Rebel
Жанр: комедия

Режиссёр: Джейсон Фридберг, Аарон Зельцер
В ролях: Дженн Проске, Мэтт Лантер, Дидрих Бадер, Крис Ригги, Кен Жонг, Аннелис Ван Дер Пол, Дэвид ДеЛуис, Келси Форд, Дэйв Фоли, Мэттью Варзел

Перевод: Полное дублирование + Оригинал
Субтитры: английские, русские

Описание: Бекки, не вампир, разрывается между двумя парнями. Также девушка должна донести свой выбор до отца, который является настоящим тираном и считает ее ребенком. Тем временем у друзей Бекки происходят всякие романтические глупости, которые сплетаются в один клубок на выпускном.





Дата премьеры (мир): 18 августа 2010
Дата премьеры (РФ): 2 сентября 2010, «Двадцатый Век Фокс СНГ»

Качество: BDRip-AVC (Исходник: BDRemux)
Продолжительность: 01:22:07

Формат: MKV
Видео кодек: AVC
Аудио кодек: AC3
Видео: 920x496 (1.855), 23.976 fps, ~2 920 kbps avg, 0.267 bit/pixel
Аудио1: 48.0 KHz, 6 channels (Front: L C R, Side: L R, LFE), 448.00 kbps avg
Аудио2: 48.0 KHz, 6 channels (Front: L C R, Side: L R, LFE), 448.00 kbps avg
MediaInfo ▼TextFormat : Matroska
Format version : Version 2
File size : 2.19 GiB
Duration : 1h 22mn
Overall bit rate : 3 811 Kbps
Encoded date : UTC 2010-12-26 14:40:16
Writing application : mkvmerge v4.0.0 (The Stars were mine) сборка от Jun 6 2010 16:18:42
Writing library : libebml v1.0.0 + libmatroska v1.0.0

Video
ID : 1
Format : AVC
Format/Info : Advanced Video Codec
Format profile : [email protected]
Format settings, CABAC : Yes
Format settings, ReFrames : 9 frames
Codec ID : V_MPEG4/ISO/AVC
Duration : 1h 22mn
Bit rate : 2 920 Kbps
Width : 920 pixels
Height : 496 pixels
Display aspect ratio : 1.855
Frame rate : 23.976 fps
Color space : YUV
Chroma subsampling : 4:2:0
Bit depth : 8 bits
Scan type : Progressive
Bits/(Pixel*Frame) : 0.267
Stream size : 1.63 GiB (75%)
Writing library : x264 core 98 r1649 c54c47d
Encoding settings : cabac=1 / ref=9 / deblock=1:-2:-1 / analyse=0x3:0x133 / me=umh / subme=10 / psy=1 / psy_rd=1.15:0.10 / mixed_ref=0 / me_range=32 / chroma_me=1 / trellis=2 / 8x8dct=1 / cqm=0 / deadzone=21,11 / fast_pskip=0 / chroma_qp_offset=-3 / threads=3 / sliced_threads=0 / nr=0 / decimate=0 / interlaced=0 / constrained_intra=0 / bframes=9 / b_pyramid=2 / b_adapt=2 / b_bias=0 / direct=3 / weightb=1 / weightp=2 / keyint=250 / keyint_min=25 / scenecut=40 / intra_refresh=0 / rc=2pass / mbtree=0 / bitrate=2920 / ratetol=1.0 / qcomp=0.60 / qpmin=10 / qpmax=51 / qpstep=4 / cplxblur=20.0 / qblur=0.5 / ip_ratio=1.40 / pb_ratio=1.30 / aq=1:1.00
Language : English
Default : No
Forced : No

Audio #1
ID : 2
Format : AC-3
Format/Info : Audio Coding 3
Mode extension : CM (complete main)
Codec ID : A_AC3
Duration : 1h 22mn
Bit rate mode : Constant
Bit rate : 448 Kbps
Channel(s) : 6 channels
Channel positions : Front: L C R, Side: L R, LFE
Sampling rate : 48.0 KHz
Bit depth : 16 bits
Compression mode : Lossy
Delay relative to video : 28ms
Stream size : 263 MiB (12%)
Title : Дублированный перевод
Language : Russian
Default : Yes
Forced : No

Audio #2
ID : 3
Format : AC-3
Format/Info : Audio Coding 3
Mode extension : CM (complete main)
Codec ID : A_AC3
Duration : 1h 22mn
Bit rate mode : Constant
Bit rate : 448 Kbps
Channel(s) : 6 channels
Channel positions : Front: L C R, Side: L R, LFE
Sampling rate : 48.0 KHz
Bit depth : 16 bits
Compression mode : Lossy
Stream size : 263 MiB (12%)
Title : Оригинал
Language : English
Default : No
Forced : No

Text #1
ID : 4
Format : UTF-8
Codec ID : S_TEXT/UTF8
Codec ID/Info : UTF-8 Plain Text
Title : Субтитры #1
Language : English
Default : No
Forced : No

Text #2
ID : 5
Format : UTF-8
Codec ID : S_TEXT/UTF8
Codec ID/Info : UTF-8 Plain Text
Title : Субтитры #2
Language : Russian
Default : No
Forced : No



Остаемся на раздаче как можно дольше. Не забываем говорить спасибо.


fd08afbb544eee88c08696ad0cc25e1a7d0e45d8Вампирский засос / Vampires Suck (Джейсон Фридберг, Аарон Зельцер, комедия, 2010) [BDRip-AVC , Полное дублирование + Оригинал + Sub] Вампирский засос / Vampires Suck (Джейсон Фридберг, Аарон Зельцер, комедия, 2010) [BDRip-AVC , Полное дублирование + Оригинал + Sub] " />

Аплоадер: Админ, дата: 16-05-2012, 17:15, торрент скачан: 359 раз

Понравилась раздача? Посмотрите эти:
  • Пастырь / Priest (Скотт Чарльз Стюарт, ужасы, фантастика, боевик, триллер, ...
  • Вампирский засос [Театральная версия] / Vampires Suck [Theatrical cut] (Дже ...
  • Как выйти замуж за 3 дня / Leap Year (Ананд Такер, Мелодрама, комедия, 2010 ...
  • Снова ты / You Again (Энди Фикмен, Мелодрама, комедия, 2010) [BDRip-AVC, Пр ...
  • Экипаж / Flight (Роберт Земекис, Драма, 2012) [BDRip-AVC, Профессиональный ...
  • Город воров / The Town [Театральная версия / Theatrical Cut] (Бен Аффлек / ...
  • Хранитель времени / Hugo (Мартин Скорсезе, Драма, 2011) [BDRip-AVC, Професс ...
  • Персонаж / Stranger Than Fiction (Марк Форстер, Комедия, драма, фантастика, ...
  • «Старый» Новый год / New Years Eve (Гэрри Маршалл, Мелодрама, 2011) [BDRip- ...
  • Больше чем секс / No Strings Attached (Айвен Райтман, мелодрама, комедия, 2 ...
  • Мармадюк / Marmaduke (Том Дей, комедия, семейный, 2010) [BDRip-AVC, Дублиро ...
  • Бедная богатая девочка / Young Adult (Джейсон Райтман, драма, комедия, 2011 ...
  • Фантомы / Shutter (Масаюки Очиай, ужасы, триллер, детектив, 2008) [BDRip-AV ...
  • Вампирский засос / Vampires Suck [Режиссёрская версия / Directors cut] (Дже ...
  • Робин Гуд [Режиссёрская версия] / Robin Hood [Directors Cut] (Ридли Скотт / ...
  • Сутенер / Le mac (Паскаль Бюрдо / Pascal Bourdiaux, комедия, криминал, 2010 ...
  • Мальчики-налетчики / Takers (Джон Льюсенхоп, боевик, криминал, 2010) [BDRip ...
  • Идеальный Голос / Pitch Perfect (Джейсон Мур, Комедия, музыка, 2012) [BDRip ...
  • Чаббчаббы спасают Рождество / The Chubbchubbs Save Xmas (Коуди Камерон, мул ...
  • Значит, война / This Means War (МакДжи, боевик, мелодрама, комедия, 2012) [ ...
  • Mylene Farmer / Du Temps [2011, Pop, HDTVRip]
  • Вампирский засос / Vampires Suck (Джейсон Фридберг, Аарон Зельцер, комедия, ...
  • Вампирский засос / Vampires Suck (Джейсон Фридберг, Аарон Зельцер, комедия ...
  • Вампирский засос / Vampires Suck (Джейсон Фридберг, Аарон Зельцер, комедия, ...
  • Вампирский засос / Vampires Suck (Джейсон Фридберг, Аарон Зельцер, комедия, ...
  • Информация
    Посетители, находящиеся в группе Гости, не могут оставлять комментарии к данной публикации.