вход на сайт

Имя пользователя :
Пароль :

Восстановление пароля Регистрация
Служебный роман. Наше время (Сарик Андреасян, мелодрама, комедия, 2011) [BDRip-AVC, Не требуется]
Рейтинг:
(голосов: 1)



[img]{THEME}/images/logopost.png[/img]



Служебный роман. Наше время
«Фильм основан на реальном шедевре»

Год выпуска: 2011
Страна: Россия
Производство: Квартал-95, Леополис
Жанр: мелодрама, комедия

Режиссёр: Сарик Андреасян
В ролях: Светлана Ходченкова, Владимир Зеленский, Марат Башаров, Анастасия Заворотнюк, Павел Воля, Дмитрий Хрусталев, Тимур Родригез, Алика Смехова, Иван Охлобыстин, Софья Хилькова

Перевод: Не требуется
Субтитры: Отсутствуют

Описание: Ее зовут Людмила Калугина, она руководит крупным рейтинговым агентством, проводя жизнь в борьбе с конкурентами. Его — Анатолий Новосельцев, он работает финансовым аналитиком, а в свободное от работы время гоняет на мотоцикле и в одиночку воспитывает двоих детей: девочку и… еще одну девочку.

Она для него — начальница-мымра, он для нее — офисный планктон и законченный неудачник. Так и не узнали бы они ничего друг о друге, если бы не служебный роман…
"Знаете ли вы, что..." ▼Права на экранизацию оригинальной пьесы были приобретены студией Леополис у режиссера Александра Атанесяна, а тот в свою очередь, приобрёл их у Эльдара Рязанова в середине 90-х годов.

Тигран Кеосаян принимал участие в съёмках фильма Служебный роман. Наше время, однако все сцены с его участием были вырезаны и пересняты.


Качество: BDRip-AVC (исходник: источник: hdclub / Blu-Ray Disc / 1080p)
Продолжительность: 01:31:03 час.

Формат: MKV
Видео кодек: AVC
Аудио кодек: AC3 Dolby Digital
Видео: 1280x544 (2,35:1), 23.976 fps, AVC ~2987 kbps avg, 0.179 bit/pixel
Аудио: 48 kHz, AC3 Dolby Digital, 3/2 (L,C,R,l,r) LFE ch, ~448 kbps

Премьера (мир): 17 марта 2011
Премьера (РФ): 17 марта 2011, «UPI»
Mediainfo ▼Complete name : Служебный роман. Наше время.mkv
Format : Matroska
File size : 2.19 GiB
Duration : 1h 31mn
Overall bit rate : 3 436 Kbps
Movie name : -=POTROKS=-
Encoded date : UTC 2011-06-18 04:41:11
Writing application : mkvmerge v4.8.0 (I Got The...) сборка от May 24 2011 03:12:58
Writing library : libebml v1.2.0 + libmatroska v1.1.0
Video
ID : 1
Format : AVC
Format/Info : Advanced Video Codec
Format profile : [email protected]
Format settings, CABAC : Yes
Format settings, ReFrames : 8 frames
Muxing mode : Container [email protected]
Codec ID : V_MPEG4/ISO/AVC
Duration : 1h 30mn
Bit rate : 2 919 Kbps
Nominal bit rate : 2 987 Kbps
Width : 1 280 pixels
Height : 544 pixels
Display aspect ratio : 2.35:1
Frame rate : 23.976 fps
Resolution : 8 bits
Colorimetry : 4:2:0
Scan type : Progressive
Bits/(Pixel*Frame) : 0.175
Stream size : 1.85 GiB (85%)
Writing library : x264 core 112 r1834 a51816a
Encoding settings : cabac=1 / ref=9 / deblock=1:-1:-1 / analyse=0x3:0x113 / me=tesa / subme=9 / psy=1 / psy_rd=1.00:0.10 / mixed_ref=1 / me_range=16 / chroma_me=1 / trellis=1 / 8x8dct=1 / cqm=0 / deadzone=21,11 / fast_pskip=1 / chroma_qp_offset=-3 / threads=6 / sliced_threads=0 / nr=0 / decimate=1 / interlaced=0 / constrained_intra=0 / bframes=9 / b_pyramid=1 / b_adapt=2 / b_bias=0 / direct=3 / weightb=1 / open_gop=1 / weightp=2 / keyint=250 / keyint_min=23 / scenecut=40 / intra_refresh=0 / rc_lookahead=50 / rc=2pass / mbtree=1 / bitrate=2987 / ratetol=1.0 / qcomp=0.60 / qpmin=0 / qpmax=51 / qpstep=4 / cplxblur=20.0 / qblur=0.5 / ip_ratio=1.40 / aq=1:1.00
Audio
ID : 2
Format : AC-3
Format/Info : Audio Coding 3
Codec ID : A_AC3
Duration : 1h 31mn
Bit rate mode : Constant
Bit rate : 448 Kbps
Channel(s) : 6 channels
Channel positions : Front: L C R, Surround: L R, LFE
Sampling rate : 48.0 KHz
Stream size : 292 MiB (13%)
Title : Оригинал AC3 / 5.1 / 448 kbps
Language : Russian


edd33e6bfd9eb7be94025c74a09fed5560cbb9daСлужебный роман. Наше время (Сарик Андреасян, мелодрама, комедия, 2011) [BDRip-AVC, Не требуется] Служебный роман. Наше время (Сарик Андреасян, мелодрама, комедия, 2011) [BDRip-AVC, Не требуется] " />

Аплоадер: Админ, дата: 20-04-2012, 00:36, торрент скачан: 359 раз

Понравилась раздача? Посмотрите эти:
  • FLO / NRG [2012, Pop, Dance, MasterRip]
  • Экзамен для двоих / Admission (Пол Вайц, драма, мелодрама, комедия, 2013) [ ...
  • Служебный роман. Наше время (Сарик Андреасян, мелодрама, комедия, 2011) [BD ...
  • Беременный (Сарик Андреасян, комедия, 2011) [BDRip-AVC, Оригинал+Sub (RUS)] ...
  • Служебный роман. Наше время (Сарик Андреасян, мелодрама, комедия, 2011) [HD ...
  • Только ты / Only You (Норман Джуисон. мелодрама, комедия. 1994) [HDTVRip, П ...
  • Выпускной / Prom (Джо Нуссбаум, драма, мелодрама, комедия, 2011) [BDRip-AVC ...
  • Свадьба по обмену (Дмитрий Грачев, комедия,мелодрама,2011) [BDRip-AVC, Не т ...
  • Служебный роман (Эльдар Рязанов, мелодрама, комедия, 1977) [BDRip, Не требу ...
  • Неуловимый Люк / Lucky Luke (Джеймс Хат, Вестерн, 2009) [HDRip-AVC, Професс ...
  • С новым годом, мамы! (Сарик Андреасян, Артем Аксененко, Дмитрий Грачев, ко ...
  • Джунгли (Александр Войтинский, Мелодрама, комедия, приключения, 2012) [BDRi ...
  • [3D] Panasonic Demo Disc 3D 2010-2011 [BDrip-AVC 1080p-720p][Оригинал][Anam ...
  • Служебный роман. Наше время (Сарик Андреасян, мелодрама, комедия, 2011) [BD ...
  • Мой парень из зоопарка / Zookeeper (Фрэнк Корачи, мелодрама, комедия, семей ...
  • Служебный роман. Наше время (Сарик Андреасян, мелодрама, комедия, 2011) [BD ...
  • Девчата (Юрий Чулюкин, мелодрама, комедия, 1961) [BDRip 720p, Не требуется] ...
  • С новым годом, мамы! (Сарик Андреасян, Артем Аксененко, Дмитрий Грачев, Ком ...
  • Mylene Farmer / Du Temps [2011, Pop, HDTVRip]
  • Mylene Farmer / Bleu Noir [2011, Pop, HDTVRip]
  • С новым годом, мамы! (Сарик Андреасян, Артем Аксененко, Дмитрий Грачев, Ком ...
  • Служебный роман. Наше время (Сарик Андреасян, мелодрама, комедия, 2011) [DV ...
  • Служебный роман. Наше время (Сарик Андреасян, мелодрама, комедия, 2011) [BD ...
  • Служебный роман. Наше время (Сарик Андреасян, мелодрама, комедия, 2011) [BD ...
  • Служебный роман (Эльдар Рязанов, мелодрама, комедия, 1977) [BDRip, Не требу ...
  • Информация
    Посетители, находящиеся в группе Гости, не могут оставлять комментарии к данной публикации.