вход на сайт

Имя пользователя :
Пароль :

Восстановление пароля Регистрация
Свадьба по обмену (Дмитрий Грачев, комедия,мелодрама,2011) [BDRip-AVC, Не требуется]
Рейтинг:
(голосов: 1)



[img]{THEME}/images/logopost.png[/img]



Свадьба по обмену
«Любовь не предлагать!»

Год выпуска: 2011
Страна: Россия
Производство: Централ Партнершип
Жанр: мелодрама, комедия

Режиссёр: Дмитрий Грачев
В ролях: Екатерина Вилкова, Фёдор Бондарчук, Максим Матвеев, Арарат Кещян, Мария Кожевникова, Ксения Каталымова, Андрей Малахов

Перевод: Не требуется
Субтитры: Отсутствуют

Описание: Супермодель Соня мечтает о тихом семейном счастье с давним бойфрендом Русланом — самовлюблённым ведущим популярного кулинарного шоу. Но тот не разделяет её мечты, он грезит только о славе и повышении собственного рейтинга, поэтому делает Соне предложение руки и сердца в присутствии толпы репортеров.

В отместку, Соня решает выйти замуж за обычного банковского клерка Сашу. Тот соглашается и тоже назло любимой девушке, Кристине. Уже выйдя из загса, Саша и Соня понимают, что погорячились. Но делать нечего, теперь им приходится изображать перед всеми счастливую влюбленную пару, скрывая взаимную ненависть.

Однако от ненависти до любви…



Качество: BDRip-AVC
Продолжительность: 01:29:03 час.

Формат: MKV
Видео кодек: AVC
Аудио кодек: AC3 Dolby Digital
Видео: 1280x688 (1.860), 25.000 fps, AVC ~2 795 kbps avg, 0.127 bit/pixel
Аудио: 48 kHz, AC3 Dolby Digital, 3/2 (L,C,R,l,r) LFE ch, ~640 kbps

Премьера (мир): 21 апреля 2011
Премьера (РФ): 21 апреля 2011, «Централ Партнершип»
Mediainfo ▼Complete name : Svadba.po.obmenu.2011.x264.BDRip.720p.mkv
Format : Matroska
File size : 2.18 GiB
Duration : 1h 29mn
Overall bit rate : 3 505 Kbps
Movie name : Rip by Blo
Encoded date : UTC 2011-12-04 17:57:20
Writing application : mkvmerge v3.2.0 (Beginnings) built on Feb 12 2010 16:46:17
Writing library : libebml v0.7.9 + libmatroska v0.8.1
Video
ID : 1
Format : AVC
Format/Info : Advanced Video Codec
Format profile : [email protected]
Format settings, CABAC : Yes
Format settings, ReFrames : 4 frames
Muxing mode : Container [email protected]
Codec ID : V_MPEG4/ISO/AVC
Duration : 1h 29mn
Bit rate : 2 795 Kbps
Nominal bit rate : 2 865 Kbps
Width : 1 280 pixels
Height : 688 pixels
Display aspect ratio : 1.860
Frame rate : 25.000 fps
Resolution : 8 bits
Colorimetry : 4:2:0
Scan type : Progressive
Bits/(Pixel*Frame) : 0.127
Stream size : 1.74 GiB (80%)
Title : Свадьба по обмену
Writing library : x264 core 116 r2074 2641b9e
Encoding settings : cabac=1 / ref=4 / deblock=1:0:0 / analyse=0x3:0x133 / me=hex / subme=6 / psy=1 / psy_rd=1.00:0.00 / mixed_ref=1 / me_range=16 / chroma_me=1 / trellis=0 / 8x8dct=1 / cqm=0 / deadzone=21,11 / fast_pskip=1 / chroma_qp_offset=-2 / threads=6 / sliced_threads=0 / nr=0 / decimate=1 / interlaced=0 / bluray_compat=0 / constrained_intra=0 / bframes=3 / b_pyramid=2 / b_adapt=2 / b_bias=0 / direct=2 / weightb=0 / open_gop=0 / weightp=2 / keyint=250 / keyint_min=25 / scenecut=40 / intra_refresh=0 / rc_lookahead=40 / rc=2pass / mbtree=1 / bitrate=2865 / ratetol=1.0 / qcomp=0.60 / qpmin=10 / qpmax=51 / qpstep=4 / cplxblur=20.0 / qblur=0.5 / ip_ratio=1.40 / aq=1:1.00
Language : English
Audio
ID : 2
Format : AC-3
Format/Info : Audio Coding 3
Codec ID : A_AC3
Duration : 1h 29mn
Bit rate mode : Constant
Bit rate : 640 Kbps
Channel(s) : 6 channels
Channel positions : Front: L C R, Surround: L R, LFE
Sampling rate : 48.0 KHz
Stream size : 408 MiB (18%)
Title : ac3.640 kb/s
Language : Russian


3380f43366a4b243bcab56bad94d1c9321179987Свадьба по обмену (Дмитрий Грачев, комедия,мелодрама,2011) [BDRip-AVC, Не требуется] Свадьба по обмену (Дмитрий Грачев, комедия,мелодрама,2011) [BDRip-AVC, Не требуется] " />

Аплоадер: Админ, дата: 20-04-2012, 00:12, торрент скачан: 359 раз

Понравилась раздача? Посмотрите эти:
  • FLO / NRG [2012, Pop, Dance, MasterRip]
  • Как выйти замуж за 3 дня / Leap Year (Ананд Такер, Мелодрама, комедия, 2010 ...
  • Замуж на 2 дня / Un plan parfait (Паскаль Шомель, Мелодрама, комедия, прикл ...
  • Соблазнитель / Kokowaah (Тиль Швайгер, мелодрама, комедия, 2010) [BDRip-AVC ...
  • Свадьба по обмену (Дмитрий Грачев, комедия,мелодрама,2011) [HDRip-AVC, Ориг ...
  • Свадьба по обмену (Дмитрий Грачев, комедия,мелодрама,2011) [HDRip-AVC, Ориг ...
  • Мой парень - ангел (Вера Сторожева, фэнтези, мелодрама, комедия, приключени ...
  • Только ты / Only You (Норман Джуисон. мелодрама, комедия. 1994) [HDTVRip, П ...
  • Служебный роман. Наше время (Сарик Андреасян, мелодрама, комедия, 2011) [BD ...
  • Москва, я люблю тебя! (Иван Охлобыстин, Екатерина Двигубская, Комедия, мело ...
  • 1+1 / Неприкасаемые / Intouchables (Оливье Накаш, Эрик Толедано, драма, ком ...
  • С новым годом, мамы! (Сарик Андреасян, Артем Аксененко, Дмитрий Грачев, ко ...
  • Секс по дружбе / Friends with Benefits (Уилл Глак, драма, мелодрама, комеди ...
  • Выкрутасы (Леван Габриадзе, мелодрама, комедия, спорт, 2011) [ВDRip 720p, Н ...
  • С новым годом, мамы! (Сарик Андреасян, Артем Аксененко, Дмитрий Грачев, Ком ...
  • Mylene Farmer / Du Temps [2011, Pop, HDTVRip]
  • Mylene Farmer / Bleu Noir [2011, Pop, HDTVRip]
  • Свадьба по обмену (Дмитрий Грачев, комедия, мелодрама, 2011) [HDRip, Оригин ...
  • Свадьба по обмену (Дмитрий Грачев, комедия,мелодрама,2011) [BDRip,Не требуе ...
  • Свадьба по обмену (Дмитрий Грачев, мелодрама, комедия, 2010) [Blu-ray Disk ...
  • Информация
    Посетители, находящиеся в группе Гости, не могут оставлять комментарии к данной публикации.