вход на сайт

Имя пользователя :
Пароль :

Восстановление пароля Регистрация
Выпускной / Prom (Джо Нуссбаум, драма, мелодрама, комедия, 2011) [BDRip-AVC, Профессиональный (полное дублирование) + Оригинал]
Рейтинг:
(голосов: 1)



[img]{THEME}/images/logopost.png[/img]



Выпускной / Prom

Год выпуска: 2011
Страна: США
Производство: Walt Disney Pictures / Rickshaw Productions
Жанр: драма, мелодрама, комедия

Режиссёр: Джо Нуссбаум
В ролях: Эйми Тигарден, Томас МакДонелл, Девон Никсон, Даниэль Кэмпбелл, Йин Чанг, Джаред Касниц, Нолан Сотилло, Камерон Монахэн, Кайли Банбери, Джо Адлер

Перевод: Профессиональный (полное дублирование) + Оригинал
Субтитры: Russian, English

Описание: Выпускной вечер бывает лишь раз в жизни. И у каждой пары на выпускном балу своя история — двух одинаковых не найти. Несколько таких историй разворачиваются в одной школе накануне грандиозного события в жизни каждого старшеклассника. «Выпускной» — это фильм о бесценном моменте перехода из школьной жизни во взрослую, на фоне которого одни отношения угасают, а другие разгораются.

Для Новы подготовка к балу превращается в борьбу с собственными желаниями, ведь ее влечет к школьному бунтарю, который против выпускных как таковых. Мэй и Тайлер (скрывают тайну, известную только им одним, в то время как их одноклассники заняты своими переживаниями и предвкушают главное событие года.



Качество: BDRip-AVC
Продолжительность: 01:43:46 час.

Формат: MKV
Видео кодек: AVC
Аудио кодек: AC3
Видео: 1280x720 (16:9), 23.976 fps, AVC, ~3 200 kbps, 0.141 bits/pixel
Аудио: 48 kHz, AC3, 3/2 (L,C,R,l,r) + LFE ch, ~448 kbps | Russian (DUB)
Аудио: 48 kHz, AC3, 3/2 (L,C,R,l,r) + LFE ch, ~448 kbps | English

Премьера (мир): 29 апреля 2011
Mediainfo ▼Format : Matroska
File size : 2.97 GiB
Duration : 1h 43mn
Overall bit rate : 4 097 Kbps
Encoded date : UTC 2011-09-02 06:59:49
Writing application : mkvmerge v4.5.0 (Speed of Light) сборка от Feb 1 2011 02:10:32
Writing library : libebml v1.2.0 + libmatroska v1.1.0
Video
ID : 1
Format : AVC
Format/Info : Advanced Video Codec
Format profile : [email protected]
Format settings, CABAC : Yes
Format settings, ReFrames : 6 frames
Muxing mode : Container [email protected]
Codec ID : V_MPEG4/ISO/AVC
Duration : 1h 43mn
Bit rate : 3 120 Kbps
Nominal bit rate : 3 200 Kbps
Width : 1 280 pixels
Height : 720 pixels
Display aspect ratio : 16:9
Frame rate : 23.976 fps
Resolution : 24 bits
Colorimetry : 4:2:0
Scan type : Progressive
Bits/(Pixel*Frame) : 0.141
Stream size : 2.26 GiB (76%)
Writing library : x264 core 116 r2044 392e762
Encoding settings : cabac=1 / ref=6 / deblock=1:-2:-1 / analyse=0x3:0x133 / me=umh / subme=10 / psy=1 / psy_rd=1.05:0.02 / mixed_ref=1 / me_range=32 / chroma_me=1 / trellis=2 / 8x8dct=1 / cqm=0 / deadzone=21,11 / fast_pskip=0 / chroma_qp_offset=-3 / threads=3 / sliced_threads=0 / nr=0 / decimate=0 / interlaced=0 / bluray_compat=0 / constrained_intra=0 / bframes=8 / b_pyramid=2 / b_adapt=2 / b_bias=0 / direct=3 / weightb=1 / open_gop=0 / weightp=2 / keyint=250 / keyint_min=23 / scenecut=40 / intra_refresh=0 / rc_lookahead=60 / rc=2pass / mbtree=0 / bitrate=3200 / ratetol=1.0 / qcomp=0.60 / qpmin=0 / qpmax=69 / qpstep=4 / cplxblur=20.0 / qblur=0.5 / vbv_maxrate=50000 / vbv_bufsize=62500 / nal_hrd=none / ip_ratio=1.35 / pb_ratio=1.25 / aq=2:1.00
Audio #1
ID : 2
Format : AC-3
Format/Info : Audio Coding 3
Codec ID : A_AC3
Duration : 1h 43mn
Bit rate mode : Constant
Bit rate : 448 Kbps
Channel(s) : 6 channels
Channel positions : Front: L C R, Surround: L R, LFE
Sampling rate : 48.0 KHz
Stream size : 333 MiB (11%)
Title : Русский
Language : Russian
Audio #2
ID : 3
Format : AC-3
Format/Info : Audio Coding 3
Codec ID : A_AC3
Duration : 1h 43mn
Bit rate mode : Constant
Bit rate : 448 Kbps
Channel(s) : 6 channels
Channel positions : Front: L C R, Surround: L R, LFE
Sampling rate : 48.0 KHz
Stream size : 333 MiB (11%)
Title : Английский
Text #1
ID : 4
Format : UTF-8
Codec ID : S_TEXT/UTF8
Codec ID/Info : UTF-8 Plain Text
Title : Русские
Language : Russian
Text #2
ID : 5
Format : UTF-8
Codec ID : S_TEXT/UTF8
Codec ID/Info : UTF-8 Plain Text
Title : Английские
Menu
00:00:00.000 : en:00:00:00.000
00:09:05.879 : en:00:09:05.879
00:11:39.115 : en:00:11:39.
e0693de4e8fb81bdde4aa0edca720426967cba9aВыпускной / Prom (Джо Нуссбаум, драма, мелодрама, комедия, 2011) [BDRip-AVC, Профессиональный (полное дублирование) + Оригинал] Выпускной / Prom (Джо Нуссбаум, драма, мелодрама, комедия, 2011) [BDRip-AVC, Профессиональный (полное дублирование) + Оригинал] " />

Аплоадер: Админ, дата: 13-04-2012, 14:30, торрент скачан: 359 раз

Понравилась раздача? Посмотрите эти:
  • Семь психопатов / Seven Psychopaths (Мартин МакДона, Триллер, комедия, крим ...
  • Экипаж / Flight (Роберт Земекис, Драма, 2012) [BDRip-AVC, Профессиональный ...
  • Зубная фея 2 / Tooth Fairy 2 (Алекс Замм, комедия, семейный, 2012) [BDRip 7 ...
  • Убить Боно / Killing Bono (Ник Хэмм, комедия, 2010) [BDRip 720p, Профессион ...
  • Выпускной / Prom (Джо Нуссбаум, Комедия, 2011) [DVDRip-AVC, Профессиональны ...
  • Выпускной / Prom (Джо Нуссбаум, драма, мелодрама, комедия, 2011) [HDRip-AVC ...
  • Хранитель времени / Hugo (Мартин Скорсезе, Драма, 2011) [BDRip-AVC, Професс ...
  • Хранитель времени / Hugo (Мартин Скорсезе, Драма, 2011) [BDRip-AVC, Професс ...
  • Снова ты / You Again (Энди Фикмен, мелодрама, комедия, 2010) [BDRip-AVC, Пр ...
  • Космический джэм / Space Jam (Джо Питка, мультфильм, фэнтези, комедия, 1996 ...
  • Выпускной / Prom (Джо Нуссбаум, драма, мелодрама, комедия, 2011) [BDRip-AVC ...
  • Больше чем секс / No Strings Attached (Айвен Райтман, мелодрама, комедия, 2 ...
  • Неуловимый Люк / Lucky Luke (Джеймс Хат, Вестерн, 2009) [HDRip-AVC, Професс ...
  • Черное золото / Black Gold (Жан-Жак Анно, Драма, 2011) [BDRip-AVC, Професси ...
  • Бобер / The Beaver (Джоди Фостер, драма, 2011) [BDRip 720p, Дубляж + Оригин ...
  • Мой парень из зоопарка / Zookeeper (Фрэнк Корачи, мелодрама, комедия, семей ...
  • Ларри Краун / Larry Crowne (Том Хэнкс, драма, мелодрама, комедия, 2011) [BD ...
  • Домашняя работа / The Art of Getting By (Гэвин Вьесен, драма, мелодрама, 20 ...
  • Путешествие на край Вселенной / Journey to the Edge of the Universe (Явар А ...
  • Mylene Farmer / Du Temps [2011, Pop, HDTVRip]
  • Mylene Farmer / Bleu Noir [2011, Pop, HDTVRip]
  • Выпускной / Prom (Джо Нуссбаум, драма, мелодрама, комедия, 2011) [BDRip, Ду ...
  • Выпускной / Prom (Джо Нуссбаум, драма, мелодрама, комедия, 2011) [BDRip, Ду ...
  • Выпускной / Prom (Джо Нуссбаум, драма, мелодрама, комедия, 2011) [HDRip, Ду ...
  • Выпускной / Prom (Джо Нуссбаум, Драма, Мелодрама, Комедия, 2011) [320x240] ...
  • Информация
    Посетители, находящиеся в группе Гости, не могут оставлять комментарии к данной публикации.