вход на сайт

Имя пользователя :
Пароль :

Восстановление пароля Регистрация
Выпускной / Prom (Джо Нуссбаум, драма, мелодрама, комедия, 2011) [BDRip-AVC, Профессиональный (полное дублирование)]
Рейтинг:
(голосов: 1)



[img]{THEME}/images/logopost.png[/img]



Выпускной / Prom

Год выпуска: 2011
Страна: США
Производство: Walt Disney Pictures / Rickshaw Productions
Жанр: драма, мелодрама, комедия

Режиссёр: Джо Нуссбаум
В ролях: Эйми Тигарден, Томас МакДонелл, Девон Никсон, Даниэль Кэмпбелл, Йин Чанг, Джаред Касниц, Нолан Сотилло, Камерон Монахэн, Кайли Банбери, Джо Адлер

Перевод: Профессиональный (полное дублирование)
Субтитры: Отсутствуют

Описание: Выпускной вечер бывает лишь раз в жизни. И у каждой пары на выпускном балу своя история — двух одинаковых не найти. Несколько таких историй разворачиваются в одной школе накануне грандиозного события в жизни каждого старшеклассника. «Выпускной» — это фильм о бесценном моменте перехода из школьной жизни во взрослую, на фоне которого одни отношения угасают, а другие разгораются.

Для Новы подготовка к балу превращается в борьбу с собственными желаниями, ведь ее влечет к школьному бунтарю, который против выпускных как таковых. Мэй и Тайлер (скрывают тайну, известную только им одним, в то время как их одноклассники заняты своими переживаниями и предвкушают главное событие года.



Качество: BDRip-AVC (Исходник. BDRemux)
Продолжительность: 01:43:46 час.

Формат: MKV
Видео кодек: AVC
Аудио кодек: AC3
Видео: 1024x576 (16:9), 23.976 fps, AVC, ~1622 kbps, 0.115 bits/pixel
Аудио: 48 kHz, AC3, 3/2 (L,C,R,l,r) + LFE ch, ~384 kbps | Russian (DUB)

Премьера (мир): 29 апреля 2011
Mediainfo ▼General
Unique ID : 174175511089515348125325115823330612235 (0x8308FBB586C9F869B6E1905510CED40B)
Complete name : L:Vypusknoi.chopper887.mkv
Format : Matroska
File size : 1.46 GiB
Duration : 1h 43mn
Overall bit rate : 2 007 Kbps
Movie name : Vypusknoi.chopper887
Encoded date : UTC 2011-09-10 03:45:39
Writing application : mkvmerge v4.8.0 (I Got The...) built on May 24 2011 03:12:58
Writing library : libebml v1.2.0 + libmatroska v1.1.0
Video
ID : 1
Format : AVC
Format/Info : Advanced Video Codec
Format profile : [email protected]
Format settings, CABAC : Yes
Format settings, ReFrames : 10 frames
Codec ID : V_MPEG4/ISO/AVC
Duration : 1h 43mn
Bit rate : 1 622 Kbps
Width : 1 024 pixels
Height : 576 pixels
Display aspect ratio : 16:9
Frame rate : 23.976 fps
Color space : YUV
Chroma subsampling : 4:2:0
Bit depth : 8 bits
Scan type : Progressive
Bits/(Pixel*Frame) : 0.115
Stream size : 1.15 GiB (79%)
Title : Vypusknoi.chopper887
Writing library : x264 core 115 r2008 4c552d8
Encoding settings : cabac=1 / ref=10 / deblock=1:-2:-1 / analyse=0x3:0x133 / me=umh / subme=10 / psy=1 / psy_rd=1.00:0.05 / mixed_ref=1 / me_range=32 / chroma_me=1 / trellis=2 / 8x8dct=1 / cqm=0 / deadzone=21,11 / fast_pskip=0 / chroma_qp_offset=-3 / threads=3 / sliced_threads=0 / nr=0 / decimate=1 / interlaced=0 / bluray_compat=0 / constrained_intra=0 / bframes=9 / b_pyramid=2 / b_adapt=2 / b_bias=0 / direct=3 / weightb=1 / open_gop=0 / weightp=2 / keyint=250 / keyint_min=23 / scenecut=40 / intra_refresh=0 / rc_lookahead=80 / rc=2pass / mbtree=1 / bitrate=1622 / ratetol=1.0 / qcomp=0.70 / qpmin=0 / qpmax=69 / qpstep=4 / cplxblur=20.0 / qblur=0.5 / ip_ratio=1.40 / aq=1:1.00
Language : English
Audio
ID : 2
Format : AC-3
Format/Info : Audio Coding 3
Mode extension : CM (complete main)
Codec ID : A_AC3
Duration : 1h 43mn
Bit rate mode : Constant
Bit rate : 384 Kbps
Channel(s) : 6 channels
Channel positions : Front: L C R, Side: L R, LFE
Sampling rate : 48.0 KHz
Bit depth : 16 bits
Compression mode : Lossy
Stream size : 285 MiB (19%)
Title : Дубляж


731c77ade3e905f2fd5e4d983eef2e5f6de4766eВыпускной / Prom (Джо Нуссбаум, драма, мелодрама, комедия, 2011) [BDRip-AVC, Профессиональный (полное дублирование)] Выпускной / Prom (Джо Нуссбаум, драма, мелодрама, комедия, 2011) [BDRip-AVC, Профессиональный (полное дублирование)] " />

Аплоадер: Админ, дата: 13-04-2012, 03:13, торрент скачан: 359 раз

Понравилась раздача? Посмотрите эти:
  • Как выйти замуж за 3 дня / Leap Year (Ананд Такер, Мелодрама, комедия, 2010 ...
  • Снова ты / You Again (Энди Фикмен, Мелодрама, комедия, 2010) [BDRip-AVC, Пр ...
  • Экзамен для двоих / Admission (Пол Вайц, драма, мелодрама, комедия, 2013) [ ...
  • Выпускной / Prom (Джо Нуссбаум, Комедия, 2011) [DVDRip-AVC, Профессиональны ...
  • Аноним / Anonymous (Роланд Эммерих, триллер, драма, 2011) [BDRip-AVC, Профе ...
  • Мальчишник 2: Из Вегаса в Бангкок / The Hangover Part II (Тодд Филлипс, ком ...
  • Выпускной / Prom (Джо Нуссбаум, драма, мелодрама, комедия, 2011) [HDRip-AVC ...
  • Голодный кролик атакует / Seeking Justice (Роджер Дональдсон / Roger Donald ...
  • Хранитель времени / Hugo (Мартин Скорсезе, Драма, 2011) [BDRip-AVC, Професс ...
  • Хранитель времени / Hugo (Мартин Скорсезе, Драма, 2011) [BDRip-AVC, Професс ...
  • Такие разные близнецы / Jack and Jill (Деннис Дуган, комедия, 2011) [BDRip- ...
  • Как украсть небоскреб / Tower Heist (Бретт Рэтнер / Brett Ratner, Комедия, ...
  • «Старый» Новый год / New Years Eve (Гэрри Маршалл, Мелодрама, 2011) [BDRip- ...
  • Выпускной / Prom (Джо Нуссбаум, драма, мелодрама, комедия, 2011) [BDRip-AVC ...
  • Больше чем секс / No Strings Attached (Айвен Райтман, мелодрама, комедия, 2 ...
  • Черное золото / Black Gold (Жан-Жак Анно, Драма, 2011) [BDRip-AVC, Професси ...
  • Мой парень из зоопарка / Zookeeper (Фрэнк Корачи, мелодрама, комедия, семей ...
  • Ларри Краун / Larry Crowne (Том Хэнкс, драма, мелодрама, комедия, 2011) [BD ...
  • Домашняя работа / The Art of Getting By (Гэвин Вьесен, драма, мелодрама, 20 ...
  • Mylene Farmer / Du Temps [2011, Pop, HDTVRip]
  • Mylene Farmer / Bleu Noir [2011, Pop, HDTVRip]
  • Выпускной / Prom (Джо Нуссбаум, драма, мелодрама, комедия, 2011) [BDRip, Ду ...
  • Выпускной / Prom (Джо Нуссбаум, драма, мелодрама, комедия, 2011) [BDRip, Ду ...
  • Выпускной / Prom (Джо Нуссбаум, драма, мелодрама, комедия, 2011) [HDRip, Ду ...
  • Выпускной / Prom (Джо Нуссбаум, Драма, Мелодрама, Комедия, 2011) [320x240] ...
  • Информация
    Посетители, находящиеся в группе Гости, не могут оставлять комментарии к данной публикации.