вход на сайт

Имя пользователя :
Пароль :

Восстановление пароля Регистрация
Самоубийцы (Егор Баранов, комедия, 2012) [DVDRip-AVC, Оригинал]
Рейтинг:
(голосов: 1)



[img]{THEME}/images/logopost.png[/img]



СамоубийцыГод выпуска: 2012Страна: Россия Производство: Кинокомпания Ортодокс и «Лига-фильм» при участии Стриж и CoMEDIAЖанр: Комедия Режиссёр: Егор БарановВ ролях: Евгений Стычкин, Алексей Воробьев, Оксана Акиньшина, Гоша Куценко, Вилле Хаапасало, Марат Башаров, Михаил Полицеймако, Александр Стриженов, Евгений Рахманько, Даниил Меркулов Перевод: Не требуетсяСубтитры: НетОписание:Комедия о головокружительных приключениях трех друзей — Алексея, Толика и Марины, которые решили свести счеты с жизнью. Собрав вокруг себя неприкаянных единомышленников, новые друзья решают напоследок исполнить по последнему желанию друг друга. Это, на первый взгляд, безобидное решение превращает жизнь героев в непрерывный калейдоскоп феерических событий. Чем активнее друзья исполняют самые неожиданные желания друг друга, тем невероятнее истории, в которые они попадают IMDB: -
КиноПоиск: 5.72(903)
Сэмпл
Качество: DVDRip-AVC Продолжительность: 01:32:38 Формат: MKVВидео кодек: XviDАудио кодек: AC-3Видео: 720 x [email protected]*446 (2,25:1), 25 fps, ~1878 kbps avg, 0.234 bit/pixelАудио: AC-3 at 448 Кбит/сек,6 каналов, 48,0 КГцMediaInfo: ▼Общее
Формат : Matroska
Версия формата : Version 2
Размер файла : 1,45 Гбайт
Продолжительность : 1 ч. 29 м.
Общий поток : 2326 Кбит/сек
Дата кодирования : UTC 2012-04-03 01:26:51
Программа кодирования : mkvmerge v5.4.0 (Piper) built on Mar 10 2012 13:34:39
Библиотека кодирования : libebml v1.2.3 + libmatroska v1.3.0
Видео
Идентификатор : 1
Формат : AVC
Формат/Информация : Advanced Video Codec
Профиль формата : [email protected]
Параметр CABAC формата : Да
Параметр ReFrames формата : 9 кадров
Идентификатор кодека : V_MPEG4/ISO/AVC
Продолжительность : 1 ч. 29 м.
Битрейт : 1878 Кбит/сек
Ширина : 720 пикселей
Высота : 446 пикселей
Соотношение сторон : 2,25:1
Частота кадров : 25,000 кадров/сек
Цветовое пространство : YUV
Субдискретизация насыщенности : 4:2:0
Битовая глубина : 8 бит
Тип развёртки : Прогрессивная
Бит/(Пиксели*Кадры) : 0.234
Размер потока : 1,14 Гбайт (79%)
Библиотека кодирования : x264 core 119 r2106 07efeb4
Настройки программы : cabac=1 / ref=9 / deblock=1:-2:-1 / analyse=0x3:0x133 / me=umh / subme=9 / psy=1 / psy_rd=1.00:0.10 / mixed_ref=1 / me_range=24 / chroma_me=1 / trellis=2 / 8x8dct=1 / cqm=0 / deadzone=21,11 / fast_pskip=0 / chroma_qp_offset=-3 / threads=12 / sliced_threads=0 / nr=0 / decimate=1 / interlaced=0 / bluray_compat=0 / constrained_intra=0 / bframes=6 / b_pyramid=2 / b_adapt=2 / b_bias=0 / direct=3 / weightb=1 / open_gop=0 / weightp=2 / keyint=250 / keyint_min=25 / scenecut=40 / intra_refresh=0 / rc=2pass / mbtree=0 / bitrate=1878 / ratetol=1.0 / qcomp=0.60 / qpmin=0 / qpmax=69 / qpstep=4 / cplxblur=20.0 / qblur=0.5 / ip_ratio=1.40 / pb_ratio=1.30 / aq=1:1.00
Язык : Russian
Default : Да
Forced : Нет
Аудио
Идентификатор : 2
Формат : AC-3
Формат/Информация : Audio Coding 3
Расширение режима : CM (complete main)
Идентификатор кодека : A_AC3
Продолжительность : 1 ч. 29 м.
Вид битрейта : Постоянный
Битрейт : 448 Кбит/сек
Каналы : 6 каналов
Расположение каналов : Front: L C R, Side: L R, LFE
Частота : 48,0 КГц
Битовая глубина : 16 бит
Метод сжатия : С потерями
Размер потока : 286 Мбайт (19%)
Язык : Russian
Default : Да
Forced : Нет
Дата премьеры (мир):1 марта 2012Дата премьеры (РФ): 1 марта 2012, «Парадиз»
Стол заказов POWER | Отзывы | Вступление в POWER


3a0bc04ef3c159ae788adb252f49a2dcdd55b0d0Самоубийцы (Егор Баранов, комедия, 2012) [DVDRip-AVC, Оригинал] Самоубийцы (Егор Баранов, комедия, 2012) [DVDRip-AVC, Оригинал] " />

Аплоадер: Админ, дата: 3-04-2012, 12:50, торрент скачан: 359 раз

Понравилась раздача? Посмотрите эти:
  • Марафон (Карен Оганесян, комедия, 2013) [DVDRip-AVC, Не требуется]
  • Гараж (Эльдар Рязанов, драма, комедия, 1979) [DVDRip-AVC, Оригинал (русский ...
  • Голливудский мусор / Garbage (Филипп Волкен, драма, комедия, 2013) [HDTVRip ...
  • Даю год / I Give It a Year (Дэн Мазер, мелодрама, комедия, 2012) [BDRip-AVC ...
  • Толстяк на ринге / Here Comes the Boom (Фрэнк Корачи, Боевик, комедия, 2012 ...
  • Думай, как мужчина / Think Like a Man (Тим Стори, Мелодрама, комедия, 2012) ...
  • Переростки / The Inbetweeners (Бен Палмер, Комедия, 2011) [BDRip-AVC, Профе ...
  • Самоубийцы (Егор Баранов, комедия, 2012) [BDRip-AVC, Не требуется]
  • Самоубийцы (Егор Баранов, комедия, 2012) [BDRip-AVC, Не требуется]
  • Самоубийцы (Егор Баранов, комедия, 2012) [BDRip-AVC, Не требуется]
  • Проект X: Дорвались / Project X (Нима Нуризаде, комедия, 2012) [BDRip - AVC ...
  • Помогите Стать Отцом / Not Suitable For Children (Питер Темплмен, Мелодрама ...
  • Я тоже хочу (Алексей Балабанов, драма, криминал, 2012) [DVDRip-AVC, Не треб ...
  • Самоубийцы (Егор Баранов, комедия, 2012) [BDRemux 1080i, Не требуется]
  • Самоубийцы (Егор Баранов, комедия, 2012) [BDRip 720p, Не требуется]
  • Лоракс: Серенада / The Lorax: Serenade (Кайл Балда, мультфильм, комедия, му ...
  • Самоубийцы (Егор Баранов, комедия, 2012г) [320x240] [DVDRip, Оригинал]
  • Самоубийцы (Егор Баранов, комедия, 2012) [DVD9, Не требуется]
  • Самоубийцы (Егор Баранов, комедия, 2012) [BDRip, Не требуется]
  • Самоубийцы (Егор Баранов, Комедия, 2012) [BDRip, Не требуется]
  • Информация
    Посетители, находящиеся в группе Гости, не могут оставлять комментарии к данной публикации.