вход на сайт

Имя пользователя :
Пароль :

Восстановление пароля Регистрация
Персонаж / Stranger Than Fiction (Марк Форстер, Комедия, драма, фантастика, 2006) [BDRip-AVC, Дублированный + Профессиональный (многоголосый) + Оригинал + Subs (rus, eng)]
Рейтинг:
(голосов: 1)



[img]{THEME}/images/logopost.png[/img]




«- Перепиши меня заново!»

Год выпуска: 2006
Страна: США
Производство: Columbia Pictures, Mandate Pictures
Жанр: Комедия, драма, фантастика

Режиссёр: Марк Форстер
В ролях: Уилл Фэрелл, Мэгги Гилленхайл, Дастин Хоффман, Куин Латифа, Эмма Томпсон, Тони Хэйл и др.

Перевод: Дублированный + Профессиональный (многоголосый) + Оригинал
Субтитры: Русские, английские

Описание:
Карен Айфел заканчивает свой последний роман об одиноком человеке Харольде Крике. Она даже не подозревает о том, что ее персонаж абсолютно реален! Настоящий Харольд Крик умирает от скуки, пока в один прекрасный день не начинает слышать голос Карен, рассказывающий о том, что и как ему следует делать.
Жизнь Крика преображается, он начинает общаться с коллегами и ухаживать за женщинами. Настоящее беспокойство овладевает Харольдом, когда он слышит, что Карен планирует завершить роман его смертью…


"MediaInfo" ▼Format : Matroska
File size : 3.49 GiB
Duration : 1h 52mn
Overall bit rate : 4 430 Kbps
Encoded date : UTC 2010-12-07 16:22:20
Writing application : mkvmerge v3.4.0 (Rapunzel) built on May 15 2010 09:38:20
Writing library : libebml v0.8.0 + libmatroska v0.9.0
Video
ID : 1
Format : AVC
Format/Info : Advanced Video Codec
Format profile : [email protected]
Format settings, CABAC : Yes
Format settings, ReFrames : 8 frames
Codec ID : V_MPEG4/ISO/AVC
Duration : 1h 52mn
Bit rate : 2 998 Kbps
Width : 1 200 pixels
Height : 650 pixels
Display aspect ratio : 16:9
Frame rate : 23.976 fps
Color space : YUV
Chroma subsampling : 4:2:0
Bit depth : 8 bits
Scan type : Progressive
Bits/(Pixel*Frame) : 0.160
Stream size : 2.36 GiB (68%)
Title : Stranger Than Fiction
Writing library : x264 core 110 r1804 e89c4cf
Encoding settings : cabac=1 / ref=8 / deblock=1:-2:-1 / analyse=0x3:0x133 / me=umh / subme=9 / psy=1 / psy_rd=1.00:0.00 / mixed_ref=1 / me_range=24 / chroma_me=0 / trellis=2 / 8x8dct=1 / cqm=0 / deadzone=21,11 / fast_pskip=0 / chroma_qp_offset=-2 / threads=3 / sliced_threads=0 / nr=0 / decimate=0 / interlaced=0 / constrained_intra=0 / bframes=10 / b_pyramid=2 / b_adapt=2 / b_bias=0 / direct=3 / weightb=1 / open_gop=0 / weightp=2 / keyint=250 / keyint_min=23 / scenecut=40 / intra_refresh=0 / rc_lookahead=40 / rc=crf / mbtree=0 / crf=19.7 / qcomp=0.65 / qpmin=0 / qpmax=51 / qpstep=4 / vbv_maxrate=25000 / vbv_bufsize=31250 / crf_max=0.0 / ip_ratio=1.40 / pb_ratio=1.30 / aq=1:1.00 / nal_hrd=none
Language : English
Audio #1
ID : 2
Format : AC-3
Format/Info : Audio Coding 3
Mode extension : CM (complete main)
Codec ID : A_AC3
Duration : 1h 52mn
Bit rate mode : Constant
Bit rate : 448 Kbps
Channel(s) : 6 channels
Channel positions : Front: L C R, Side: L R, LFE
Sampling rate : 48.0 KHz
Bit depth : 16 bits
Video delay : 6ms
Stream size : 362 MiB (10%)
Title : Дубляж
Language : Russian
Audio #2
ID : 3
Format : AC-3
Format/Info : Audio Coding 3
Mode extension : CM (complete main)
Codec ID : A_AC3
Duration : 1h 52mn
Bit rate mode : Constant
Bit rate : 448 Kbps
Channel(s) : 6 channels
Channel positions : Front: L C R, Side: L R, LFE
Sampling rate : 48.0 KHz
Bit depth : 16 bits
Stream size : 362 MiB (10%)
Title : Профессиональный (многоголосый)
Language : Russian
Audio #3
ID : 4
Format : AC-3
Format/Info : Audio Coding 3
Mode extension : CM (complete main)
Codec ID : A_AC3
Duration : 1h 52mn
Bit rate mode : Constant
Bit rate : 448 Kbps
Channel(s) : 6 channels
Channel positions : Front: L C R, Side: L R, LFE
Sampling rate : 48.0 KHz
Bit depth : 16 bits
Stream size : 362 MiB (10%)
Title : Английский
Language : English
Text #1
ID : 5
Format : UTF-8
Codec ID : S_TEXT/UTF8
Codec ID/Info : UTF-8 Plain Text
Title : Русские (1)
Language : Russian
Text #2
ID : 6
Format : UTF-8
Codec ID : S_TEXT/UTF8
Codec ID/Info : UTF-8 Plain Text
Title : Русские (2)
Language : Russian
Text #3
ID : 7
Format : UTF-8
Codec ID : S_TEXT/UTF8
Codec ID/Info : UTF-8 Plain Text
Tit
444758d84d1837405cc24373cab2ca340a9e0d3bПерсонаж / Stranger Than Fiction (Марк Форстер, Комедия, драма, фантастика, 2006) [BDRip-AVC, Дублированный + Профессиональный (многоголосый) + Оригинал + Subs (rus, eng)] Персонаж / Stranger Than Fiction (Марк Форстер, Комедия, драма, фантастика, 2006) [BDRip-AVC, Дублированный + Профессиональный (многоголосый) + Оригинал + Subs (rus, eng)] " />

Аплоадер: Админ, дата: 19-03-2012, 17:47, торрент скачан: 359 раз

Понравилась раздача? Посмотрите эти:
  • Армагеддец / The Worlds End (Эдгар Райт, фантастика, боевик, комедия, 2013) ...
  • За кадром... / In a World...(Лэйк Белл, комедия, 2013) [BDRip-AVC, Професси ...
  • Грязь / Filth (Джон С. Бейрд, криминал, драма, комедия, 2013) [BDRip-AVC, ...
  • Суррогат / The Sessions (Бен Луин, драма, 2012) [BDRip 720p, Профессиональн ...
  • Зубная фея 2 / Tooth Fairy 2 (Алекс Замм, комедия, семейный, 2012) [BDRip 7 ...
  • Убить по расписанию / Ticking Clock (Эрни Барбараш, фантастика, боевик, три ...
  • Цельнометаллическая оболочка / Full Metal Jacket (Стэнли Кубрик, драма, вое ...
  • Впритык / Due Date (Тодд Филлипс, драма, комедия, 2010) [HDRip-AVC, Професс ...
  • Властелин измерений / Grande ourse - La cle des possibles (Патрис Сов, фант ...
  • Мартовские иды / The Ides of March (Джордж Клуни / George Clooney, драма, 2 ...
  • Мармадюк / Marmaduke (Том Дей, комедия, семейный, 2010) [BDRip-AVC, Дублиро ...
  • Бедная богатая девочка / Young Adult (Джейсон Райтман, драма, комедия, 2011 ...
  • Персонаж / Stranger Than Fiction (Марк Форстер, Комедия, драма, фантастика, ...
  • Робин Гуд [Режиссёрская версия] / Robin Hood [Directors Cut] (Ридли Скотт / ...
  • Персонаж / Stranger Than Fiction (Марк Форстер / Marc Forster, фэнтези, дра ...
  • Сутенер / Le mac (Паскаль Бюрдо / Pascal Bourdiaux, комедия, криминал, 2010 ...
  • Второй шанс / Gridiron Gang (Фил Джоану / Phil Joanou, драма, криминал, спо ...
  • Идеальный Голос / Pitch Perfect (Джейсон Мур, Комедия, музыка, 2012) [BDRip ...
  • [3D] Глаз ребенка / Childs Eye (Оксид Пан, ужасы, 2010) [BDRip, Дублированн ...
  • Исходный код / Source Code (Дункан Джонс, фантастика, боевик, триллер, 2011 ...
  • Ледниковый период: Гигантское Рождество / Ice Age: A Mammoth Christmas (Кар ...
  • Чаббчаббы спасают Рождество / The Chubbchubbs Save Xmas (Коуди Камерон, мул ...
  • Паранормальное явление 3 / Paranormal Activity 3 [Theatrical Cut] (Генри Дж ...
  • Похищенная / A Lonely Place to Die (Джулиан Джилби, триллер, криминал, прик ...
  • Персонаж / Stranger Than Fiction (Марк Форстер) [2006, Комедия, DVDRip]
  • Информация
    Посетители, находящиеся в группе Гости, не могут оставлять комментарии к данной публикации.