вход на сайт

Имя пользователя :
Пароль :

Восстановление пароля Регистрация
Как украсть небоскреб / Tower Heist (Бретт Рэтнер / Brett Ratner, Комедия, криминал, 2011) [BDRip-AVC, Профессиональный (полное дублирование)]
Рейтинг:
(голосов: 1)



[img]{THEME}/images/logopost.png[/img]



Как украсть небоскреб / Tower Heist

Год выпуска: 2011
Страна: США
Производство: Universal Pictures
Жанр: Комедия, криминал

Режиссёр: Бретт Рэтнер
В ролях: Бен Стиллер, Эдди Мёрфи, Кейси Аффлек, Алан Алда, Мэттью Бродерик, Теа Леони, Майкл Пенья, Габури «Гэбби» Сидибе, Стефен Хендерсон, Джадд Хёрш

Перевод: Профессиональный (полное дублирование)
Субтитры: Отсутствуют

Описание: Джошу Ковачу не повезло - его поимел злобный финансист, живущий в роскошных апартаментах на верхнем этаже небоскреба. Чтобы вернуть деньги, Джош с друзьями решается на грандиозную кражу со взломом.

Но одним им это не под силу, и они обращаются к матерому преступнику. Дело за малым - шесть новоявленных друзей Джоушена должны пробраться в пентхаус и отыскать 20 миллионов долларов.



IMDB: 6.30 (23 595)
КиноПоиск: 6.990 (8 178)

СЭМПЛ

Rip by: chopper887

Качество: BDRip-AVC
Продолжительность: 01:44:33 час.


Формат: MKV
Видео кодек: x264
Аудио кодек: AC3
Видео: 1056x440 (2.40:1), 23.976 fps, x264, ~1607 Kbps, 0.144 bits/pixel
Аудио: 48 kHz, AC3 Dolby Digital, 3/2 (L,C,R,l,r) + LFE ch ~384.00 kbps avg / [DUB]


Дата премьеры (мир): 24 октября 2011
Дата премьеры (РФ): 24 ноября 2011, «UPI»

MediaInfo ▼General
Unique ID : 192239411697979684922251822304275134426 (0x909FF6C54CB08282BF290EC1FD7EF7DA)
Complete name : E:DownloadsKak ukrast neboskreb.chopper887.mkv
Format : Matroska
Format version : Version 2
File size : 1.45 GiB
Duration : 1h 44mn
Overall bit rate : 1 992 Kbps
Movie name : Kak ukrast neboskreb.chopper887
Encoded date : UTC 2012-03-03 05:37:22
Writing application : mkvmerge v4.8.0 (I Got The...) сборка от May 24 2011 03:12:58
Writing library : libebml v1.2.0 + libmatroska v1.1.0

Video
ID : 1
Format : AVC
Format/Info : Advanced Video Codec
Format profile : [email protected]
Format settings, CABAC : Yes
Format settings, ReFrames : 6 frames
Codec ID : V_MPEG4/ISO/AVC
Duration : 1h 44mn
Bit rate : 1 607 Kbps
Width : 1 056 pixels
Height : 440 pixels
Display aspect ratio : 2.40:1
Frame rate : 23.976 fps
Color space : YUV
Chroma subsampling : 4:2:0
Bit depth : 8 bits
Scan type : Progressive
Bits/(Pixel*Frame) : 0.144
Stream size : 1.15 GiB (79%)
Title : Kak ukrast neboskreb.chopper887
Writing library : x264 core 120 r2146 bcd41db
Encoding settings : cabac=1 / ref=6 / deblock=1:-2:-1 / analyse=0x3:0x133 / me=umh / subme=11 / psy=1 / psy_rd=1.00:0.10 / mixed_ref=1 / me_range=32 / chroma_me=1 / trellis=2 / 8x8dct=1 / cqm=0 / deadzone=21,11 / fast_pskip=0 / chroma_qp_offset=-3 / threads=12 / sliced_threads=0 / nr=0 / decimate=1 / interlaced=0 / bluray_compat=0 / constrained_intra=0 / bframes=10 / b_pyramid=2 / b_adapt=2 / b_bias=0 / direct=3 / weightb=1 / open_gop=0 / weightp=2 / keyint=240 / keyint_min=23 / scenecut=40 / intra_refresh=0 / rc_lookahead=80 / rc=2pass / mbtree=1 / bitrate=1607 / ratetol=1.0 / qcomp=0.60 / qpmin=0 / qpmax=69 / qpstep=4 / cplxblur=20.0 / qblur=0.5 / ip_ratio=1.40 / aq=1:1.00
Language : English
Default : Yes
Forced : No

Audio
ID : 2
Format : AC-3
Format/Info : Audio Coding 3
Mode extension : CM (complete main)
Codec ID : A_AC3
Duration : 1h 44mn
Bit rate mode : Constant
Bit rate : 384 Kbps
Channel(s) : 6 channels
Channel positions : Front: L C R, Side: L R, LFE
Sampling rate : 48.0 KHz
Bit depth : 16 bits
Compression mode : Lossy
Stream size : 287 MiB (19%)
Title : Dub
Default : Yes
Forced : No

165e9dfc02905e29f8f8a08345662c44fb7455e1Как украсть небоскреб / Tower Heist (Бретт Рэтнер / Brett Ratner, Комедия, криминал, 2011) [BDRip-AVC, Профессиональный (полное дублирование)] Как украсть небоскреб / Tower Heist (Бретт Рэтнер / Brett Ratner, Комедия, криминал, 2011) [BDRip-AVC, Профессиональный (полное дублирование)] " />

Аплоадер: Админ, дата: 3-03-2012, 12:40, торрент скачан: 359 раз

Понравилась раздача? Посмотрите эти:
  • Иллюзия обмана / Now You See Me [Theatrical Cut] (Луи Летерье / Louis Leter ...
  • Шелуха / Husk (Бретт Симмонс, ужасы, триллер, 2011) [BDRip 720p, Профессион ...
  • Голодный кролик атакует / Seeking Justice (Роджер Дональдсон / Roger Donald ...
  • Хранитель времени / Hugo (Мартин Скорсезе, Драма, 2011) [BDRip-AVC, Професс ...
  • Хранитель времени / Hugo (Мартин Скорсезе, Драма, 2011) [BDRip-AVC, Професс ...
  • Такие разные близнецы / Jack and Jill (Деннис Дуган, комедия, 2011) [BDRip- ...
  • Час пик / Rush Hour (Бретт Рэтнер, боевик, комедия,1998) [BDRip-AVC, Дубляж ...
  • Как украсть небоскреб / Tower Heist (Бретт Рэтнер / Brett Ratner, Комедия, ...
  • Как украсть небоскреб / Tower Heist (Бретт Рэтнер / Brett Ratner, Комедия, ...
  • Похищенная / A Lonely Place to Die (Джулиан Джилби, триллер, криминал, прик ...
  • «Старый» Новый год / New Years Eve (Гэрри Маршалл, Мелодрама, 2011) [BDRip- ...
  • Как украсть небоскреб / Tower Heist (Бретт Рэтнер, комедия, криминал , 2011 ...
  • Черное золото / Black Gold (Жан-Жак Анно, Драма, 2011) [BDRip-AVC, Професси ...
  • Мой парень из зоопарка / Zookeeper (Фрэнк Корачи, мелодрама, комедия, семей ...
  • Как украсть небоскреб / Tower Heist (Бретт Рэтнер, Комедия, 2011) [BD-Remux ...
  • Как украсть небоскреб / Tower Heist (Бретт Рэтнер, Комедия, криминал, 2011) ...
  • Mylene Farmer / Du Temps [2011, Pop, HDTVRip]
  • Mylene Farmer / Bleu Noir [2011, Pop, HDTVRip]
  • Как украсть небоскреб / Tower Heist (Бретт Рэтнер, комедия, криминал, 2011) ...
  • Как украсть небоскреб / Tower Heist (Бретт Рэтнер, комедия, криминал, 2011г ...
  • Как украсть небоскреб / Tower Heist (Бретт Рэтнер, комедия, криминал, 2011) ...
  • Как украсть небоскреб / Tower Heist (Бретт Рэтнер / Brett Ratner, Комедия, ...
  • [iPhone, iPod]Как украсть небоскреб / Tower Heist (Бретт Рэтнер / Brett Rat ...
  • Как украсть небоскреб / Tower Heist (Бретт Рэтнер, комедия, криминал, 2011) ...
  • Как украсть небоскрёб / Tower Heist (Бретт Рэтнер, комедия, 2011) [DVDRip,Д ...
  • Информация
    Посетители, находящиеся в группе Гости, не могут оставлять комментарии к данной публикации.