вход на сайт

Имя пользователя :
Пароль :

Восстановление пароля Регистрация
Как украсть небоскреб / Tower Heist (Бретт Рэтнер / Brett Ratner, Комедия, криминал, 2011) [BDRip-AVC, Профессиональный (полное дублирование)]
Рейтинг:
(голосов: 1)



[img]{THEME}/images/logopost.png[/img]



Как украсть небоскреб / Tower Heist

Год выпуска: 2011
Страна: США
Производство: Universal Pictures
Жанр: Комедия, криминал

Режиссёр: Бретт Рэтнер
В ролях: Бен Стиллер, Эдди Мёрфи, Кейси Аффлек, Алан Алда, Мэттью Бродерик, Теа Леони, Майкл Пенья, Габури «Гэбби» Сидибе, Стефен Хендерсон, Джадд Хёрш

Перевод: Профессиональный (полное дублирование)
Субтитры: Отсутствуют

Описание: Джошу Ковачу не повезло - его поимел злобный финансист, живущий в роскошных апартаментах на верхнем этаже небоскреба. Чтобы вернуть деньги, Джош с друзьями решается на грандиозную кражу со взломом.

Но одним им это не под силу, и они обращаются к матерому преступнику. Дело за малым - шесть новоявленных друзей Джоушена должны пробраться в пентхаус и отыскать 20 миллионов долларов.



IMDB: 6.30 (23 595)
КиноПоиск: 6.990 (8 178)

СЭМПЛ

Качество: BDRip-AVC
Продолжительность: 01:44:33 час.


Формат: MKV
Видео кодек: x264
Аудио кодек: AC3
Видео: 1024x426,(2.40:1) 23.976 fps, x264~2388 kbps avg, 0.223 bit/pixel
Аудио: 48 kHz, AC3 Dolby Digital, 3/2 (L,C,R,l,r) + LFE ch ~384.00 kbps avg / [DUB]


Дата премьеры (мир): 24 октября 2011
Дата премьеры (РФ): 24 ноября 2011, «UPI»

MediaInfo ▼General
Complete name : I:Shapito.Shou.(2.serii.iz.2).2011.x264.BDRip.(720p).HDClubKak.ukrast.neboskreb.2011.x264.BDRip.(AVC).mkv
Format : Matroska
File size : 2.03 GiB
Duration : 1h 44mn
Overall bit rate : 2 774 Kbps
Encoded date : UTC 2012-03-02 23:00:13
Writing application : mkvmerge v5.2.1 (A Far Off Place) built on Jan 2 2012 23:21:10
Writing library : libebml v1.2.3 + libmatroska v1.3.0
Video #1
ID : 1
Format : AVC
Format/Info : Advanced Video Codec
Format profile : [email protected]
Format settings, CABAC : Yes
Format settings, ReFrames : 9 frames
Muxing mode : Container [email protected]
Codec ID : V_MPEG4/ISO/AVC
Duration : 1h 44mn
Bit rate : 2 334 Kbps
Nominal bit rate : 2 388 Kbps
Width : 1 024 pixels
Height : 426 pixels
Display aspect ratio : 2.40:1
Frame rate : 23.976 fps
Resolution : 24 bits
Colorimetry : 4:2:0
Scan type : Progressive
Bits/(Pixel*Frame) : 0.223
Stream size : 1.70 GiB (84%)
Writing library : x264 core 119 r2106 07efeb4
Encoding settings : cabac=1 / ref=9 / deblock=1:-2:-1 / analyse=0x3:0x133 / me=umh / subme=10 / psy=1 / psy_rd=1.00:0.10 / mixed_ref=1 / me_range=32 / chroma_me=1 / trellis=2 / 8x8dct=1 / cqm=0 / deadzone=21,11 / fast_pskip=0 / chroma_qp_offset=-3 / threads=12 / sliced_threads=0 / nr=0 / decimate=1 / interlaced=0 / bluray_compat=0 / constrained_intra=0 / bframes=8 / b_pyramid=2 / b_adapt=2 / b_bias=0 / direct=3 / weightb=1 / open_gop=0 / weightp=2 / keyint=250 / keyint_min=23 / scenecut=40 / intra_refresh=0 / rc=2pass / mbtree=0 / bitrate=2388 / ratetol=1.0 / qcomp=0.60 / qpmin=0 / qpmax=69 / qpstep=4 / cplxblur=20.0 / qblur=0.5 / ip_ratio=1.40 / pb_ratio=1.30 / aq=1:1.00
Audio #2
ID : 2
Format : AC-3
Format/Info : Audio Coding 3
Codec ID : A_AC3
Duration : 1h 44mn
Bit rate mode : Constant
Bit rate : 384 Kbps
Channel(s) : 6 channels
Channel positions : Front: L C R, Surround: L R, LFE
Sampling rate : 48.0 KHz
Stream size : 287 MiB (14%)
Language : Russian

9b8d624d6a40488fe66ee16dfb6ec7e04974cc47Как украсть небоскреб / Tower Heist (Бретт Рэтнер / Brett Ratner, Комедия, криминал, 2011) [BDRip-AVC, Профессиональный (полное дублирование)] Как украсть небоскреб / Tower Heist (Бретт Рэтнер / Brett Ratner, Комедия, криминал, 2011) [BDRip-AVC, Профессиональный (полное дублирование)] " />

Аплоадер: Админ, дата: 3-03-2012, 11:59, торрент скачан: 359 раз

Понравилась раздача? Посмотрите эти:
  • Семь психопатов / Seven Psychopaths (Мартин МакДона, Триллер, комедия, крим ...
  • Иллюзия обмана / Now You See Me [Theatrical Cut] (Луи Летерье / Louis Leter ...
  • Невозможное / Lo imposible (Хуан Антонио Байона, драма, 2012) [BDRip-AVC, П ...
  • Шелуха / Husk (Бретт Симмонс, ужасы, триллер, 2011) [BDRip 720p, Профессион ...
  • Хранитель времени / Hugo (Мартин Скорсезе, Драма, 2011) [BDRip-AVC, Професс ...
  • Хранитель времени / Hugo (Мартин Скорсезе, Драма, 2011) [BDRip-AVC, Професс ...
  • Такие разные близнецы / Jack and Jill (Деннис Дуган, комедия, 2011) [BDRip- ...
  • Час пик / Rush Hour (Бретт Рэтнер, боевик, комедия,1998) [BDRip-AVC, Дубляж ...
  • Как украсть небоскреб / Tower Heist (Бретт Рэтнер / Brett Ratner, Комедия, ...
  • Как украсть небоскреб / Tower Heist (Бретт Рэтнер / Brett Ratner, Комедия, ...
  • Как украсть небоскреб / Tower Heist (Бретт Рэтнер, комедия, криминал , 2011 ...
  • Неуловимый Люк / Lucky Luke (Джеймс Хат, Вестерн, 2009) [HDRip-AVC, Професс ...
  • Кот в сапогах / Puss in Boots (Крис Миллер, мультфильм, 2011) [ВDRip-AVC, П ...
  • Мой парень из зоопарка / Zookeeper (Фрэнк Корачи, мелодрама, комедия, семей ...
  • Как украсть небоскреб / Tower Heist (Бретт Рэтнер, Комедия, 2011) [BD-Remux ...
  • Как украсть небоскреб / Tower Heist (Бретт Рэтнер, Комедия, криминал, 2011) ...
  • Значит, война / This Means War (МакДжи, боевик, мелодрама, комедия, 2012) [ ...
  • Mylene Farmer / Du Temps [2011, Pop, HDTVRip]
  • Как украсть небоскреб / Tower Heist (Бретт Рэтнер, комедия, криминал, 2011) ...
  • Как украсть небоскреб / Tower Heist (Бретт Рэтнер, комедия, криминал, 2011г ...
  • Как украсть небоскреб / Tower Heist (Бретт Рэтнер, комедия, криминал, 2011) ...
  • Как украсть небоскреб / Tower Heist (Бретт Рэтнер / Brett Ratner, Комедия, ...
  • [iPhone, iPod]Как украсть небоскреб / Tower Heist (Бретт Рэтнер / Brett Rat ...
  • Как украсть небоскреб / Tower Heist (Бретт Рэтнер, комедия, криминал, 2011) ...
  • Как украсть небоскрёб / Tower Heist (Бретт Рэтнер, комедия, 2011) [DVDRip,Д ...
  • Информация
    Посетители, находящиеся в группе Гости, не могут оставлять комментарии к данной публикации.