вход на сайт

Имя пользователя :
Пароль :

Восстановление пароля Регистрация
Переростки / The Inbetweeners (Бен Палмер, Комедия, 2011) [BDRip-AVC, Профессиональный (дублированный)]
Рейтинг:
(голосов: 1)



[img]{THEME}/images/logopost.png[/img]



Переростки / The Inbetweeners
«This Summer Four Boys Become Men»

Год выпуска: 2011
Страна: Великобритания
Производство: Bwark Productions
Жанр: Комедия

Режиссёр: Бен Палмер
В ролях: Саймон Бёрд, Джеймс Баккли, Блейк Харрисон, Джо Томас, Эмили Хэд, Лидия Роуз Бьюли, Лаура Хэддок, Тамла Кэри, Джессика Нэппет, Тео Барклем-Биггз.

Перевод: Профессиональный (дублированный)
Субтитры: Отсутствуют

Описание: Устав от своих проблем, четверо восемнадцатилетних приятелей подростков с юга Англии отправляются на двухнедельный отдых-мальчишник в Грецию.Дата премьеры (мир): 17 августа 2011
Дата премьеры (РФ): 1 декабря 2011, «Каскад»
Качество: BDRip-AVC
Продолжительность: 01:36:57


Формат: MKV
Видео кодек: x264
Аудио кодек: AC3
Видео: 1036x560 at 23,976 fps, MPEG-4 AVC, ~1699 kbps avg, 0.122 bit/pixel
Аудио: 48 kHz, AC3, 3/2 (L,C,R,l,r) + LFE ch, ~448.00 kbps avg
MediaInfo ▼TextФормат : Matroska
Версия формата : Version 2
Размер файла : 1,45 Гбайт
Продолжительность : 1 ч. 36 м.
Общий поток : 2148 Кбит/сек
Дата кодирования : UTC 2012-02-29 20:34:31
Программа кодирования : mkvmerge v4.9.1 (Ich will) сборка от Jul 11 2011 23:53:15
Библиотека кодирования : libebml v1.2.1 + libmatroska v1.1.1

Видео
Идентификатор : 1
Формат : AVC
Формат/Информация : Advanced Video Codec
Профиль формата : [email protected]
Параметр CABAC формата : Да
Параметр ReFrames формата : 9 кадров
Идентификатор кодека : V_MPEG4/ISO/AVC
Продолжительность : 1 ч. 36 м.
Битрейт : 1699 Кбит/сек
Ширина : 1036 пикселей
Высота : 560 пикселей
Соотношение сторон : 1,850
Частота кадров : 23,976 кадра/сек
Цветовое пространство : YUV
Субдискретизация насыщенности : 4:2:0
Битовая глубина : 8 бит
Тип развёртки : Прогрессивная
Бит/(Пиксели*Кадры) : 0.122
Размер потока : 1,12 Гбайт (77%)
Библиотека кодирования : x264 core 120 r2164 da19765
Настройки программы : cabac=1 / ref=9 / deblock=1:-2:-1 / analyse=0x3:0x113 / me=umh / subme=10 / psy=1 / psy_rd=1.05:0.10 / mixed_ref=1 / me_range=32 / chroma_me=1 / trellis=2 / 8x8dct=1 / cqm=0 / deadzone=21,11 / fast_pskip=0 / chroma_qp_offset=-3 / threads=6 / sliced_threads=0 / nr=0 / decimate=1 / interlaced=0 / bluray_compat=0 / constrained_intra=0 / bframes=10 / b_pyramid=2 / b_adapt=2 / b_bias=0 / direct=1 / weightb=1 / open_gop=0 / weightp=2 / keyint=240 / keyint_min=23 / scenecut=40 / intra_refresh=0 / rc=2pass / mbtree=0 / bitrate=1699 / ratetol=1.0 / qcomp=0.60 / qpmin=0 / qpmax=69 / qpstep=4 / cplxblur=20.0 / qblur=0.5 / ip_ratio=1.40 / pb_ratio=1.30 / aq=1:1.00

Аудио
Идентификатор : 2
Формат : AC-3
Формат/Информация : Audio Coding 3
Расширение режима : CM (complete main)
Идентификатор кодека : A_AC3
Продолжительность : 1 ч. 36 м.
Вид битрейта : Постоянный
Битрейт : 448 Кбит/сек
Каналы : 6 каналов
Расположение каналов : Front: L C R, Side: L R, LFE
Частота : 48,0 КГц
Битовая глубина : 16 бит
Метод сжатия : С потерями
Размер потока : 311 Мбайт (21%)
Язык : Russian





ae33c68c95282efc0642123bc6188b54ea75f98bПереростки / The Inbetweeners (Бен Палмер, Комедия, 2011) [BDRip-AVC, Профессиональный (дублированный)] Переростки / The Inbetweeners (Бен Палмер, Комедия, 2011) [BDRip-AVC, Профессиональный (дублированный)] " />

Аплоадер: Админ, дата: 1-03-2012, 11:03, торрент скачан: 359 раз

Понравилась раздача? Посмотрите эти:
  • Одноклассники 2 / Grown Ups 2 (Деннис Дуган, Комедия, 2013) [BDRip-AVC, Про ...
  • Одноклассники 2 / Grown Ups 2 (Деннис Дуган, комедия, 2013) [BDRip 1080p, Д ...
  • Поймай толстуху, если сможешь / Identity Thief [Theatrical Cut] (Сет Гордон ...
  • Даю год / I Give It a Year (Дэн Мазер, мелодрама, комедия, 2012) [BDRip-AVC ...
  • Начинающие / Beginners (Майк Миллс / Mike Mills, драма, мелодрама, комедия, ...
  • Главное - не бояться! / A Little Bit of Heaven (Николь Кэссел / Nicole Kass ...
  • Соломенные псы / Straw Dogs (Род Лури, Триллер, драма, криминал , 2011) [BD ...
  • Заражение / Contagion (Стивен Содерберг, триллер, драма, 2011) [BDRip-AVC, ...
  • Челюсти 3D / Shark Night 3D ( Дэвид Р. Эллис, ужасы, 2011) [BDRip-AVC, Проф ...
  • Сначала любовь, потом свадьба / Love, Wedding, Marriage (Дермот Малруни, ко ...
  • Переростки / The Inbetweeners (Бен Палмер / Ben Palmer, комедия, 2011) [BD ...
  • Бедная богатая девочка / Young Adult (Джейсон Райтман, драма, комедия, 2011 ...
  • Свадебный разгром / A Few Best Men (Стефан Эллиотт, комедия, 2011) [BDRip-A ...
  • Проект X: Дорвались / Project X (Нима Нуризаде, комедия, 2012) [BDRip - AVC ...
  • Заражение / Contagion (Стивен Содерберг, Фантастика, 2011) [BDRip 1080p, Пр ...
  • Переростки / The Inbetweeners (Бен Палмер / Ben Palmer, комедия, 2011) [BDR ...
  • Бедная богатая девочка / Young Adult (Джейсон Райтман, драма, комедия, 2011 ...
  • Свадебный разгром / A Few Best Men (Стефан Эллиотт, Комедия, 2011) [BDRip 7 ...
  • Переростки / The Inbetweeners (Бен Палмер, комедия, 2011) [BDRip, Дублирова ...
  • Переростки / The Inbetweeners (Бен Палмер, комедия, 2011) [BDRip, Дублирова ...
  • Информация
    Посетители, находящиеся в группе Гости, не могут оставлять комментарии к данной публикации.