вход на сайт

Имя пользователя :
Пароль :

Восстановление пароля Регистрация
Такие разные близнецы / Jack and Jill (Деннис Дуган, комедия, 2011) [BDRip-AVC, Профессиональный (полное дублирование)]
Рейтинг:
(голосов: 1)



[img]{THEME}/images/logopost.png[/img]



Такие разные близнецы / Jack and Jill

Год выпуска: 2011
Страна: США
Производство: Broken Road Productions, Happy Madison Productions
Жанр: комедия

Режиссёр: Деннис Дуган
В ролях:Адам Сэндлер, Кэти Холмс, Аль Пачино, Роэн Чанд, Эудженио Дербез, Дэвид Спейд, Ник Свардсон, Тим Медоуз, Аллен Коверт

Перевод: Профессиональный (полное дублирование)
Субтитры: Отсутствуют

Описание: В центре сюжета - семейный мужчина по имени Джек, к которому на День Благодарения нагрянула в гости его взбалмошная сестра-близняшка Джилл. И ладно бы погостила да махнула ручкой, так ведь нет: Джилл прочно обосновалась в доме братца и, кажется, в ближайшее время не собирается уезжать.

Сэмпл

IMDB: 3.20 (10 844)
КиноПоиск: 5.231 (4 532)

Качество: BDRip-AVC
Продолжительность:01:30:49 час.

Rip by: chopper887

Формат: MKV
Видео кодек: x264
Аудио кодек: AC3
Видео: 960x520 (16:9), 23.976 fps, x264, ~1844 Kbps, 0.154 bits/pixel
Аудио: 48 kHz, AC3, 3/2 (L,C,R,l,r) + LFE ch, ~448.00 kbps avg


Дата премьеры (мир): 11 ноября 2011
Дата премьеры (РФ): 2 февраля 2012, «WDSSPR»

MediaInfo ▼General
Unique ID : 205969815451259067982675230786214609262 (0x9AF457F10A968A47BD60DBE24A32C16E)
Complete name : E:DownloadsJack and Jill .chopper887.mkv
Format : Matroska
File size : 1.45 GiB
Duration : 1h 30mn
Overall bit rate : 2 293 Kbps
Movie name : Jack and Jill .chopper887
Encoded date : UTC 2012-02-26 06:34:06
Writing application : mkvmerge v4.8.0 (I Got The...) сборка от May 24 2011 03:12:58
Writing library : libebml v1.2.0 + libmatroska v1.1.0

Video
ID : 1
Format : AVC
Format/Info : Advanced Video Codec
Format profile : [email protected]
Format settings, CABAC : Yes
Format settings, ReFrames : 6 frames
Codec ID : V_MPEG4/ISO/AVC
Duration : 1h 30mn
Bit rate : 1 844 Kbps
Width : 960 pixels
Height : 520 pixels
Display aspect ratio : 16:9
Frame rate : 23.976 fps
Color space : YUV
Chroma subsampling : 4:2:0
Bit depth : 8 bits
Scan type : Progressive
Bits/(Pixel*Frame) : 0.154
Stream size : 1.14 GiB (78%)
Title : Jack and Jill .chopper887
Writing library : x264 core 120 r2164 da19765
Encoding settings : cabac=1 / ref=6 / deblock=1:-2:-1 / analyse=0x3:0x133 / me=umh / subme=11 / psy=1 / psy_rd=1.00:0.10 / mixed_ref=1 / me_range=32 / chroma_me=1 / trellis=2 / 8x8dct=1 / cqm=0 / deadzone=21,11 / fast_pskip=0 / chroma_qp_offset=-3 / threads=12 / sliced_threads=0 / nr=0 / decimate=1 / interlaced=0 / bluray_compat=0 / constrained_intra=0 / bframes=7 / b_pyramid=2 / b_adapt=2 / b_bias=0 / direct=3 / weightb=1 / open_gop=0 / weightp=2 / keyint=240 / keyint_min=23 / scenecut=40 / intra_refresh=0 / rc_lookahead=80 / rc=2pass / mbtree=1 / bitrate=1844 / ratetol=1.0 / qcomp=0.60 / qpmin=10 / qpmax=51 / qpstep=4 / cplxblur=20.0 / qblur=0.5 / ip_ratio=1.40 / aq=1:1.00
Language : English

Audio
ID : 2
Format : AC-3
Format/Info : Audio Coding 3
Mode extension : CM (complete main)
Codec ID : A_AC3
Duration : 1h 30mn
Bit rate mode : Constant
Bit rate : 448 Kbps
Channel(s) : 6 channels
Channel positions : Front: L C R, Side: L R, LFE
Sampling rate : 48.0 KHz
Bit depth : 16 bits
Compression mode : Lossy
Stream size : 291 MiB (20%)
Title : Dub

c52f29b0168d7fcec345788a80c75dac20ea4d7aТакие разные близнецы / Jack and Jill (Деннис Дуган, комедия, 2011) [BDRip-AVC, Профессиональный (полное дублирование)] Такие разные близнецы / Jack and Jill (Деннис Дуган, комедия, 2011) [BDRip-AVC, Профессиональный (полное дублирование)] " />

Аплоадер: Админ, дата: 26-02-2012, 15:25, торрент скачан: 359 раз

Понравилась раздача? Посмотрите эти:
  • Счастливчик Гилмор / Happy Gilmore (Деннис Дуган, мелодрама, комедия, спорт ...
  • Голодный кролик атакует / Seeking Justice (Роджер Дональдсон / Roger Donald ...
  • Такие разные близнецы / Jack and Jill (Деннис Дуган, Комедия, 2011) [HDRip ...
  • Хранитель времени / Hugo (Мартин Скорсезе, Драма, 2011) [BDRip-AVC, Професс ...
  • Хранитель времени / Hugo (Мартин Скорсезе, Драма, 2011) [BDRip-AVC, Професс ...
  • Такие разные близнецы / Jack and Jill (Деннис Дуган, комедия, 2011) [BDRip- ...
  • Такие разные близнецы / Jack and Jill (Деннис Дуган, комедия, 2011) [BDRip- ...
  • Такие разные близнецы / Jack and Jill (Деннис Дуган, комедия, 2011) [BDRip- ...
  • Как украсть небоскреб / Tower Heist (Бретт Рэтнер / Brett Ratner, Комедия, ...
  • «Старый» Новый год / New Years Eve (Гэрри Маршалл, Мелодрама, 2011) [BDRip- ...
  • Черное золото / Black Gold (Жан-Жак Анно, Драма, 2011) [BDRip-AVC, Професси ...
  • Мой парень из зоопарка / Zookeeper (Фрэнк Корачи, мелодрама, комедия, семей ...
  • Такие разные близнецы / Jack and Jill (Деннис Дуган, комедия, 2011) [BDRip ...
  • Такие разные близнецы / Jack and Jill (Деннис Дуган, комедия, 2011) [BDRip ...
  • Mylene Farmer / Du Temps [2011, Pop, HDTVRip]
  • Mylene Farmer / Bleu Noir [2011, Pop, HDTVRip]
  • Такие разные близнецы / Jack and Jill (Деннис Дуган, комедия, 2011) [BDRip, ...
  • [iPhone, iPod]Такие разные близнецы / Jack and Jill (Деннис Дуган, комедия) ...
  • Такие разные близнецы / Jack and Jill (Деннис Дуган, комедия, 2011) [BDRip, ...
  • Такие разные близнецы / Jack and Jill (Деннис Дуган, комедия, 2011) [Blu-ra ...
  • Информация
    Посетители, находящиеся в группе Гости, не могут оставлять комментарии к данной публикации.