вход на сайт

Имя пользователя :
Пароль :

Восстановление пароля Регистрация
Пять невест [Полная телевизионная версия] (Карен Оганесян, Комедия, 2011) [SATRip-AVC, Не требуется]
Рейтинг:
(голосов: 1)



[img]{THEME}/images/logopost.png[/img]



Пять невест [Полная телевизионная версия]

Год выпуска: 2011
Страна: Россия
Производство: Централ Партнершип
Жанр: комедия

Режиссёр: Карен Оганесян
В ролях: Данила Козловский, Елизавета Боярская, Артур Смольянинов, Светлана Ходченкова, Владимир Яглыч, Юлия Пересильд, Александр Лойе, Ксения Роменкова, Хорен Левонян, Ирина Пегова, Марина Голуб, Андрей Федорцов, Анна Табанина, Михаил Горевой, Валерий Золотухин, Игорь Савочкин, Константин Воробьёв, Алексей Дмитриев, Анна Цуканова, Светлана Никифорова, Геннадий Фомин, Сергей Жбанков, Борис Гергалов, Тамара Миронова, Александр Сухоцкий, Роман Садчило

Перевод: Не требуется
Субтитры: Отсутствуют

Описание: Май 1945 года. Вся страна ликует и строит планы на новую послевоенную жизнь. Счастливые воины-победители, дошедшие до Берлина, мечтают вернуться героями домой. Но их не спешат отпускать… Очень расстроены этим обстоятельством бравые летчики-истребители Вадик, Леша, Гарик, Ваня и Миша. Ведь в их отсутствие всех красивых девчонок могут разобрать!

Леше Каверину повезло — его отправляют в командировку на Родину. У друзей рождается авантюрный план: Леша должен найти друзьям невест и жениться на них, используя удостоверения ребят. И на все про все у него всего одни сутки…



Качество: SATRip-AVC
Продолжительность: 03:04:25 час.

Формат: MKV
Видео кодек: x264
Аудио кодек: AC3 Dolby Digital
Видео: [email protected] (1.86:1), 25 fps, x.264 ~1500 kbps avg, 0.16 bit/pixel
Аудио: 48 kHz, AC3 Dolby Digital, 2/0 (L,R) ch, ~192 kbps

Дата премьеры (мир): 29 сентября 2011
Дата премьеры (РФ): 29 сентября 2011, «Централ Партнершип»

MediaInfo ▼Format : Matroska
Format version : Version 2
File size : 2.18 GiB
Duration : 3h 4mn
Overall bit rate : 1 694 Kbps
Encoded date : UTC 2012-02-25 08:49:46
Writing application : mkvmerge v4.6.0 (Still Crazy After All These Years) сборка от Apr 1 2011 21:01:49
Writing library : libebml v1.2.0 + libmatroska v1.1.0
Video
ID : 1
Format : AVC
Format/Info : Advanced Video Codec
Format profile : [email protected]
Format settings, CABAC : Yes
Format settings, ReFrames : 11 frames
Codec ID : V_MPEG4/ISO/AVC
Duration : 3h 4mn
Bit rate : 1 500 Kbps
Width : 704 pixels
Height : 550 pixels
Display aspect ratio : 1.862
Frame rate : 25.000 fps
Color space : YUV
Chroma subsampling : 4:2:0
Bit depth : 8 bits
Scan type : Progressive
Bits/(Pixel*Frame) : 0.155
Stream size : 1.89 GiB (87%)
Title : Rip by iriston
Writing library : x264 core 119 r2106 07efeb4
Encoding settings : cabac=1 / ref=11 / deblock=1:-2:-1 / analyse=0x3:0x133 / me=umh / subme=10 / psy=1 / psy_rd=1.00:0.20 / mixed_ref=1 / me_range=16 / chroma_me=1 / trellis=2 / 8x8dct=1 / cqm=0 / deadzone=21,11 / fast_pskip=0 / chroma_qp_offset=-3 / threads=12 / sliced_threads=0 / nr=0 / decimate=0 / interlaced=0 / bluray_compat=0 / constrained_intra=0 / bframes=8 / b_pyramid=2 / b_adapt=2 / b_bias=0 / direct=3 / weightb=1 / open_gop=0 / weightp=2 / keyint=250 / keyint_min=25 / scenecut=40 / intra_refresh=0 / rc_lookahead=60 / rc=2pass / mbtree=1 / bitrate=1500 / ratetol=1.0 / qcomp=0.60 / qpmin=0 / qpmax=69 / qpstep=4 / cplxblur=20.0 / qblur=0.5 / ip_ratio=1.40 / aq=2:1.00
Language : Russian
Matrix coefficients : BT.470-6 System B, BT.470-6 System G, BT.601-6 625, BT.1358 625, BT.1700 625 PAL, BT.1700 625 SECAM, IEC 61966-2-4 601
Audio
ID : 2
Format : AC-3
Format/Info : Audio Coding 3
Mode extension : CM (complete main)
Codec ID : A_AC3
Duration : 3h 4mn
Bit rate mode : Constant
Bit rate : 192 Kbps
Channel(s) : 2 channels
Channel positions : Front: L R
Sampling rate : 48.0 KHz
Bit depth : 16 bits
Compression mode : Lossy
Stream size : 253 MiB (11%)
Language : Russian

520f36eb963000cbc41e383195effbcac8c2bcc8Пять невест [Полная телевизионная версия] (Карен Оганесян, Комедия, 2011) [SATRip-AVC, Не требуется] Пять невест [Полная телевизионная версия] (Карен Оганесян, Комедия, 2011) [SATRip-AVC, Не требуется] " />

Аплоадер: Админ, дата: 26-02-2012, 00:31, торрент скачан: 359 раз

Понравилась раздача? Посмотрите эти:
  • FLO / NRG [2012, Pop, Dance, MasterRip]
  • О чём молчат девушки (Карен Оганесян, Комедия, 2013) [BDRip-AVC, Не требует ...
  • Пять невест (Карен Оганесян, комедия, 2011) [DVDRip-AVC, Не требуется]
  • Пять невест (Карен Оганесян, Комедия, 2011) [BDRip - AVC, Не требуется]
  • Пять невест (Карен Оганесян, Комедия, 2011) [BDRip - AVC, Не требуется]
  • Хранитель времени / Hugo (Мартин Скорсезе, Драма, 2011) [BDRip-AVC, Професс ...
  • Смешарики. Начало (Денис Чернов, мультфильм, комедия, приключения, семейный ...
  • Пять невест (Карен Оганесян, Комедия, 2011) [BDRip 720p, Оригинал]
  • Пять невест (Карен Оганесян, комедия, 2011) [BDRip 1080p, Не требуется]
  • Белый тигр (Карен Шахназаров, военный, 2012) [BDRip 720p, Не требуется]
  • Матч (Андрей Малюков, Драма, спорт, 2012) [BDRip 720p, Не требуется]
  • Chelsea - Season Review 2011-12 / Челси - Обзор Сезона 2011-12 [ Футбол, 20 ...
  • Восьмидесятые // Сезон 1, эпизоды с 1 по 12 (из 12) (Комедия, мелодрама, 20 ...
  • Mylene Farmer / Du Temps [2011, Pop, HDTVRip]
  • Mylene Farmer / Bleu Noir [2011, Pop, HDTVRip]
  • Пять невест (Карен Оганесян, Комедия, 2011) [DVDRip, Оригинал]
  • Пять невест (Карен Оганесян, комедия, 2011) [DVD 9, оригинал]
  • Домовой (Карен Оганесян, триллер, 2008) [DVDRip-AVC, Оригинал]
  • Пять невест (Карен Оганесян, Комедия, 2011) [HDRip, Не требуется]
  • Пять невест (Карен Оганесян, комедия, 2011) [HDRip, Оригинал]
  • Информация
    Посетители, находящиеся в группе Гости, не могут оставлять комментарии к данной публикации.