вход на сайт

Имя пользователя :
Пароль :

Восстановление пароля Регистрация
Агент Джонни Инглиш: Перезагрузка / Johnny English Reborn (Оливер Паркер, боевик, комедия, приключения, 2011) [BDRip-AVC, Дубляж]
Рейтинг:
(голосов: 1)



[img]{THEME}/images/logopost.png[/img]



Агент Джонни Инглиш: Перезагрузка / Johnny English Reborn
Cлоган: «Он не ищет лёгких путей»

Год выпуска: 2011
Страна: США , Франция , Великобритания
Производство: Relativity Media, Studio Canal, Universal Pictures
Жанр: боевик, комедия, приключения

Режиссёр: Оливер Паркер
В ролях: Роуэн Эткинсон, Джиллиан Андерсон, Доминик Уэст, Розамунд Пайк, Дэниэл Калуя, Ричард Шифф, Бен Миллер, Стивен Кэмпбелл Мур, Кристина Чонг, Жозефин Де Ла Буме

Перевод: Дубляж
Субтитры: Английские

Описание: Действие фильма разворачивается через 8 лет после событий предшествующего фильма и с тех пор карьера сэра Джонни Инглиша ухудшается. За 5 лет до начала фильма его направили с заданием в Мозамбик, но миссия пошла ужасно плохо. С тех пор он живёт в пещере в горах Тибета, прячась ото всех из-за стыда, сожалений и обвинений в провале миссии. Фильм начинается, когда герой находится на крайне низком моральном уровне, пока ему не дают ещё один шанс. Британская разведка МИ-7 снова нуждается в нём и ей надо вернуть агента, чтобы тот сорвал заговор группы киллеров, планирующих убить китайского премьер-министра.



Качество: BDRip-AVC [Johnny.English.Reborn.2011.1080p.BluRay.VC-1.DTS-HDMA5.1-HDChina]
Продолжительность: 01:41:21

Формат: MKV
Видео кодек: x264
Аудио кодек: AC3
Видео: 1056 x 440 (2.40:1), 23,976 fps,~1648 kbps avg, 0.148 bit/pixel
Аудио: 48 kHz, AC3 Dolby Digital, 3/2 (L,C,R,l,r) + LFE ch, ~384.00 kbps avg

Media Info ▼General
Unique ID : 211520771599895113064062845651463805376 (0x9F216B35B7AA4C9CA22AB7520FCD99C0)
Complete name : I:OtherAgent.Dzhonni.Inglish.Perezagruzka.2011.RUS.BDRip-AVC.AC3.-HQ-ViDEO.mkv
Format : Matroska
Format version : Version 2
File size : 1.47 GiB
Duration : 1h 41mn
Overall bit rate : 2 074 Kbps
Movie name : Johnny English Reborn (2011) - HQ-ViDEO
Encoded date : UTC 2012-01-20 12:11:50
Writing application : mkvmerge v5.2.1 (A Far Off Place) built on Jan 2 2012 23:21:10
Writing library : libebml v1.2.3 + libmatroska v1.3.0

Video
ID : 1
Format : AVC
Format/Info : Advanced Video Codec
Format profile : [email protected]
Format settings, CABAC : Yes
Format settings, ReFrames : 8 frames
Codec ID : V_MPEG4/ISO/AVC
Duration : 1h 41mn
Bit rate : 1 648 Kbps
Width : 1 056 pixels
Height : 440 pixels
Display aspect ratio : 2.40:1
Frame rate : 23.976 fps
Color space : YUV
Chroma subsampling : 4:2:0
Bit depth : 8 bits
Scan type : Progressive
Bits/(Pixel*Frame) : 0.148
Stream size : 1.17 GiB (79%)
Title : Vaippp
Writing library : x264 core 120 r2146kMod bcd41db
Encoding settings : cabac=1 / ref=8 / deblock=1:-2:-1 / analyse=0x3:0x113 / me=umh / subme=10 / psy=1 / fade_compensate=0.00 / psy_rd=1.00:0.00 / mixed_ref=1 / me_range=32 / chroma_me=1 / trellis=2 / 8x8dct=1 / cqm=0 / deadzone=21,11 / fast_pskip=1 / chroma_qp_offset=-1 / threads=12 / sliced_threads=0 / nr=0 / decimate=1 / interlaced=0 / bluray_compat=0 / constrained_intra=0 / bframes=11 / b_pyramid=2 / b_adapt=2 / b_bias=0 / direct=1 / weightb=1 / open_gop=0 / weightp=2 / keyint=240 / keyint_min=22 / scenecut=40 / intra_refresh=0 / rc_lookahead=40 / rc=crf / mbtree=0 / crf=18.7600 / qcomp=0.65 / qpmin=0 / qpmax=69 / qpstep=4 / vbv_maxrate=50000 / vbv_bufsize=62500 / crf_max=0.0 / nal_hrd=none / ip_ratio=1.35 / pb_ratio=1.25 / aq=1:0.90
Language : English
Default : Yes
Forced : No
Matrix coefficients : BT.709-5, BT.1361, IEC 61966-2-4 709, SMPTE RP177

Audio
ID : 2
Format : AC-3
Format/Info : Audio Coding 3
Mode extension : CM (complete main)
Codec ID : A_AC3
Duration : 1h 41mn
Bit rate mode : Constant
Bit rate : 384 Kbps
Channel(s) : 6 channels
Channel positions : Front: L C R, Side: L R, LFE
Sampling rate : 48.0 KHz
Bit depth : 16 bits
Compression mode : Lossy
Stream size : 278 MiB (19%)
Title : DUB @ BluRay CEE
Language : Russian
Default : Yes
Forced : Yes

Text
I
62ba0e5c0911a34c2e9a2ac72c6a4462967d2b2eАгент Джонни Инглиш: Перезагрузка / Johnny English Reborn (Оливер Паркер, боевик, комедия, приключения, 2011) [BDRip-AVC, Дубляж] Агент Джонни Инглиш: Перезагрузка / Johnny English Reborn (Оливер Паркер, боевик, комедия, приключения, 2011) [BDRip-AVC, Дубляж] " />

Аплоадер: Админ, дата: 20-01-2012, 19:06, торрент скачан: 359 раз

Понравилась раздача? Посмотрите эти:
  • Агент Джонни Инглиш [дилогия] / Johnny English [dilogy] (Оливер Паркер, Пит ...
  • Толстяк на ринге / Here Comes the Boom (Фрэнк Корачи, Боевик, комедия, 201 ...
  • Толстяк на ринге / Here Comes the Boom (Фрэнк Корачи, Боевик, комедия, 201 ...
  • Военные Игры / War Games: At The End Of The Day ( Козимо Алема, триллер, у ...
  • Паладин / Dawn Of The Dragonslayer (Энн К. Блэк, фэнтези, боевик, приключе ...
  • Агент Джонни Инглиш / Johnny English (Питер Хауит, боевик, комедия, приключ ...
  • Агент Джонни Инглиш: Перезагрузка / Johnny English Reborn (Оливер Паркер, б ...
  • Агент Джонни Инглиш: Перезагрузка / Johnny English Reborn (Оливер Паркер, Б ...
  • Мартовские иды / The Ides of March (Джордж Клуни / George Clooney, драма, 2 ...
  • Проект X: Дорвались / Project X (Нима Нуризаде, комедия, 2012) [BDRip-AVC, ...
  • Агент Джонни Инглиш: Перезагрузка / Johnny English Reborn (Оливер Паркер, Б ...
  • Агент Джонни Инглиш: Перезагрузка / Johnny English Reborn (Оливер Паркер, ...
  • Закон доблести / Act of Valor (Майк МакКой, Скотт Во, боевик, триллер, прик ...
  • Проект X: Дорвались / Project X (Нима Нуризаде, комедия, 2012) [BDRip 720p, ...
  • Джок / Jock (Дункан МакНили, мультфильм, комедия, приключения, семейный, 20 ...
  • «Весёлые» каникулы / Get the Gringo (Адриан Грюнберг, Боевик, комедия, 2012 ...
  • Ворон / The Raven (Джеймс МакТиг, Триллер, детектив, 2012) [BDRip 720p, Дуб ...
  • Chelsea - Season Review 2011-12 / Челси - Обзор Сезона 2011-12 [ Футбол, 20 ...
  • Mylene Farmer / Du Temps [2011, Pop, HDTVRip]
  • Mylene Farmer / Bleu Noir [2011, Pop, HDTVRip]
  • PBS: Природа – Гималаи / PBS: Nature – The Himalayas (Крис Морган, Докумен ...
  • Агент Джонни Инглиш: Перезагрузка / Johnny English Reborn (Оливер Паркер, б ...
  • Агент Джонни Инглиш: Перезагрузка / Johnny English Reborn (Оливер Паркер, б ...
  • Агент Джонни Инглиш: Перезагрузка / Johnny English Reborn (Оливер Паркер, б ...
  • Агент Джонни Инглиш: Перезагрузка / Johnny English Reborn (Оливер Паркер, б ...
  • Информация
    Посетители, находящиеся в группе Гости, не могут оставлять комментарии к данной публикации.