вход на сайт

Имя пользователя :
Пароль :

Восстановление пароля Регистрация
Агент Джонни Инглиш: Перезагрузка / Johnny English Reborn (Оливер Паркер, боевик, комедия, приключения, 2011) [HDRip-AVC, Дублированный + Оригинал + Субтитры(EN)]
Рейтинг:
(голосов: 1)



[img]{THEME}/images/logopost.png[/img]



Агент Джонни Инглиш: Перезагрузка / Johnny English Reborn
«Он не ищет лёгких путей»

Год выпуска: 2011
Страна: США Франция Великобритания
Производство: Relativity Media, Studio Canal, Universal Pictures
Жанр: боевик, комедия, приключения

Режиссёр: Оливер Паркер
В ролях: Роуэн Эткинсон, Джиллиан Андерсон, Доминик Уэст, Розамунд Пайк, Дэниэл Калуя, Ричард Шифф, Бен Миллер, Стивен Кэмпбелл Мур, Кристина Чонг, Жозефин Де Ла Буме

Перевод: Профессиональный (дублированный)
Субтитры: Английские

Описание: Действие фильма разворачивается через 8 лет после событий предшествующего фильма и с тех пор карьера сэра Джонни Инглиша ухудшается. За 5 лет до начала фильма его направили с заданием в Мозамбик, но миссия пошла ужасно плохо. С тех пор он живёт в пещере в горах Тибета, прячась ото всех из-за стыда, сожалений и обвинений в провале миссии. Фильм начинается, когда герой находится на крайне низком моральном уровне, пока ему не дают ещё один шанс. Британская разведка МИ-7 снова нуждается в нём и ей надо вернуть агента, чтобы тот сорвал заговор группы киллеров, планирующих убить китайского премьер-министра.



Качество: HDRip-AVC
Продолжительность: 01:37:15

Формат: MKV
Видео кодек: x264
Аудио кодек: AC3 Dolby Digital
Видео: 1024x426 (2,40:1), 23.976 fps, ~2193 kbps avg, 0.210 bit/pixel
Аудио: 48 kHz, AC3 Dolby Digital, 6 каналов (Front: L C R, Side: L R, LFE) ~384.00 kbps avg Russian
Аудио: 48 kHz, AC3 Dolby Digital, 6 каналов (Front: L C R, Side: L R, LFE) ~448.00 kbps avg English

MediaInfo ▼TextОбщее
Полное имя : F:johnny.english.reborn.HDRip-AVC.2011.mkv
Формат : Matroska
Версия формата : Version 2
Размер файла : 2,14 Гбайт
Продолжительность : 1 ч. 41 м.
Общий поток : 3027 Кбит/сек
Дата кодирования : UTC 2012-01-19 21:18:18
Программа кодирования : mkvmerge v5.0.1 (Es ist Sommer) built on Oct 9 2011 11:55:43
Библиотека кодирования : libebml v1.2.2 + libmatroska v1.3.0

Видео
Идентификатор : 1
Формат : AVC
Формат/Информация : Advanced Video Codec
Профиль формата : [email protected]
Параметр CABAC формата : Да
Параметр ReFrames формата : 11 кадров
Идентификатор кодека : V_MPEG4/ISO/AVC
Продолжительность : 1 ч. 41 м.
Битрейт : 2193 Кбит/сек
Ширина : 1024 пикселя
Высота : 426 пикселей
Соотношение сторон : 2,40:1
Частота кадров : 23,976 кадра/сек
Цветовое пространство : YUV
Субдискретизация насыщенности : 4:2:0
Битовая глубина : 8 бит
Тип развёртки : Прогрессивная
Бит/(Пиксели*Кадры) : 0.210
Размер потока : 1,51 Гбайт (71%)
Библиотека кодирования : x264 core 116 r2074 2641b9e
Настройки программы : cabac=1 / ref=11 / deblock=1:-3:-2 / analyse=0x3:0x133 / me=umh / subme=10 / psy=1 / psy_rd=1.00:0.05 / mixed_ref=1 / me_range=32 / chroma_me=1 / trellis=2 / 8x8dct=1 / cqm=0 / deadzone=21,11 / fast_pskip=1 / chroma_qp_offset=-3 / threads=12 / sliced_threads=0 / nr=0 / decimate=1 / interlaced=0 / bluray_compat=0 / constrained_intra=0 / bframes=10 / b_pyramid=2 / b_adapt=2 / b_bias=0 / direct=3 / weightb=1 / open_gop=0 / weightp=2 / keyint=250 / keyint_min=23 / scenecut=40 / intra_refresh=0 / rc=2pass / mbtree=0 / bitrate=2193 / ratetol=1.0 / qcomp=0.70 / qpmin=0 / qpmax=69 / qpstep=4 / cplxblur=20.0 / qblur=0.5 / ip_ratio=1.40 / pb_ratio=1.30 / aq=1:1.00
Язык : English
Default : Да
Forced : Нет

Аудио #1
Идентификатор : 2
Формат : AC-3
Формат/Информация : Audio Coding 3
Расширение режима : CM (complete main)
Идентификатор кодека : A_AC3
Продолжительность : 1 ч. 41 м.
Вид битрейта : Постоянный
Битрейт : 384 Кбит/сек
Каналы : 6 каналов
Расположение каналов : Front: L C R, Side: L R, LFE
Частота : 48,0 КГц
Битовая глубина : 16 бит
Метод сжатия : С потерями
Размер потока : 278 Мбайт (13%)
Загол
6d9e259ff89a9f6a70995fb0dff9ac167f8a1097Агент Джонни Инглиш: Перезагрузка / Johnny English Reborn (Оливер Паркер, боевик, комедия, приключения, 2011) [HDRip-AVC, Дублированный + Оригинал + Субтитры(EN)] Агент Джонни Инглиш: Перезагрузка / Johnny English Reborn (Оливер Паркер, боевик, комедия, приключения, 2011) [HDRip-AVC, Дублированный + Оригинал + Субтитры(EN)] " />

Аплоадер: Админ, дата: 20-01-2012, 14:30, торрент скачан: 359 раз

Понравилась раздача? Посмотрите эти:
  • Агент Джонни Инглиш [дилогия] / Johnny English [dilogy] (Оливер Паркер, Пит ...
  • Главное - не бояться! / A Little Bit of Heaven (Николь Кэссел / Nicole Kass ...
  • Погоня / Abduction (Джон Синглтон, боевик, триллер, драма, детектив, 2011) ...
  • Агент Джонни Инглиш / Johnny English (Питер Хауит, боевик, комедия, приключ ...
  • Агент Джонни Инглиш: Перезагрузка / Johnny English Reborn (Оливер Паркер, б ...
  • Агент Джонни Инглиш: Перезагрузка / Johnny English Reborn (Оливер Паркер, Б ...
  • Переростки / The Inbetweeners (Бен Палмер, Комедия, 2011) [BDRip-AVC, Профе ...
  • Проект X: Дорвались / Project X (Нима Нуризаде, комедия, 2012) [BDRip - AVC ...
  • Помогите Стать Отцом / Not Suitable For Children (Питер Темплмен, Мелодрама ...
  • Агент Джонни Инглиш: Перезагрузка / Johnny English Reborn (Оливер Паркер, Б ...
  • Агент Джонни Инглиш: Перезагрузка / Johnny English Reborn (Оливер Паркер, ...
  • Невероятный Халк / The Incredible Hulk (Луи Летерье, фантастика, боевик, тр ...
  • Агент Джонни Инглиш / Johnny English (Питер Хоуитт, комедия, приключения, б ...
  • Агент Джонни Инглиш / Johnny English (Питер Хауит, боевик, комедия, приключ ...
  • Агент Джонни Инглиш / Johnny English (Питер Хауит, Боевик, комедия, приключ ...
  • Агент Джонни Инглиш: Перезагрузка / Johnny English Reborn (Оливер Паркер, б ...
  • Агент Джонни Инглиш: Перезагрузка / Johnny English Reborn (Оливер Паркер, б ...
  • Агент Джонни Инглиш: Перезагрузка / Johnny English Reborn (Оливер Паркер, б ...
  • Агент Джонни Инглиш: Перезагрузка / Johnny English Reborn (Оливер Паркер, б ...
  • Агент Джонни Инглиш / Johnny English (Питер Хоуитт, Боевик, Комедия, Приклю ...
  • Информация
    Посетители, находящиеся в группе Гости, не могут оставлять комментарии к данной публикации.