вход на сайт

Имя пользователя :
Пароль :

Восстановление пароля Регистрация
Любовь в большом городе 2 (Марюс Вайсберг, романтическая комедия, 2010) [BDRip-AVC, оригинал]
Рейтинг:
(голосов: 1)



[img]{THEME}/images/logopost.png[/img]



Любовь в большом городе 2

Год выпуска: 2009
Страна: Россия
Производство: Леополис
Жанр: Романтическая комедия

Режиссёр: Марюс Вайсберг
В ролях: Вера Брежнева, Алексей Чадов, Анастасия Задорожная, Светлана Ходченкова, Вилле Хаапасало, Владимир Зеленский, Филипп Киркоров, Павел Воля, Леонид Ярмольник, Игорь Верник

Перевод: Оригинал
Субтитры: отсутствуют

Описание: Игорь приглашает Сауну и Артема с возлюбленными на ранчо к отцу. Ребята смогут отдохнуть, а Игорь наконец-то познакомит Настю с будущим тестем. Друзья пакуют чемоданы.

В самолете они знакомятся с парочкой американцев, которые рассказывают им о неком монастыре на окраине города, где будут жить наши герои, святом месте, согласно древнему преданию помогающем в борьбе с бесплодием. Игорь, Артем и Сауна единодушны — к отцовству они еще не готовы. Но на экскурсию в монастырь все-таки едут. Несмотря на предупреждение монаха, друзья прикасаются к «идолу», и теперь они обречены при первом же половом акте зачать ребенка. Они озадачены — стоит верить предрассудкам или нет? На всякий случай, они решают временно воздержаться от секса. Девушки, узнав о причине такого странного поведения любимых, обижаются и уезжают.

Оставшись одни, ребята решают оттянуться по полной, но тут на их пути снова появляется святой Валентин. Он возмущен: как они могли не воспользоваться таким благословением? Рождается новое заклятие. Тот из троих, кто окажется первым в постели с женщиной, — станет отцом. Остальные смогут иметь детей лишь через 10 лет. О таком повороте событий никто и помыслить не мог. Все трое внезапно осознают, что готовы к отцовству… Приключения начинаются.


6.10 (321)
6.46 (13 410)


Качество: BDRip-AVC [Исходник - Blu-Ray / 1080p]
Продолжительность: 01:32:56

Формат: MKV
Видео кодек: AVC
Аудио кодек: AC3
Формат видео: 1024х448(2.25:1), MPEG4-AVC, 1786 Kbps, 23.976 fps, 0,158 bit/pixel
Формат аудио: 48.0 KHz, AC3,6 ch, 448 Kbps.

""MediaInfo""

Complete name : Lubov v bolshom gorode 2 2010 BDRip-AVC.mkv
Format : Matroska
File size : 1.45 GiB
Duration : 1h 32mn
Overall bit rate : 2 235 Kbps
Movie name : Love in the Big City 2 (2010)
Encoded date : UTC 2010-11-20 14:41:42
Writing application : mkvmerge v3.4.0 (Rapunzel) сборка от May 15 2010 09:38:20
Writing library : libebml v0.8.0 + libmatroska v0.9.0

Video
ID : 1
Format : AVC
Format/Info : Advanced Video Codec
Format profile : [email protected]
Format settings, CABAC : Yes
Format settings, ReFrames : 6 frames
Muxing mode : Container [email protected]
Codec ID : V_MPEG4/ISO/AVC
Duration : 1h 32mn
Bit rate : 1 743 Kbps
Nominal bit rate : 1 786 Kbps
Width : 1 024 pixels
Height : 448 pixels
Display aspect ratio : 2.25:1
Frame rate : 23.976 fps
Resolution : 8 bits
Colorimetry : 4:2:0
Scan type : Progressive
Bits/(Pixel*Frame) : 0.158
Stream size : 1.13 GiB (78%)
Title : Love in the Big City 2 (2010)
Writing library : x264 core 79 r1342kMod e8501ef
Encoding settings : cabac=1 / ref=6 / deblock=1:-1:-1 / analyse=0x3:0x111 / me=umh / subme=9 / psy=1 / psy_rd=1.0:0.1 / mixed_ref=1 / me_range=16 / chroma_me=1 / trellis=1 / 8x8dct=1 / cqm=0 / deadzone=21,11 / chroma_qp_offset=-3 / threads=3 / nr=0 / decimate=1 / mbaff=0 / constrained_intra=0 / bframes=4 / b_pyramid=0 / b_adapt=2 / b_bias=0 / direct=3 / wpredb=1 / wpredp=2 / keyint=250 / keyint_min=25 / scenecut=40 / rc_lookahead=150 / rc=2pass / mbtree=1 / bitrate=1786 / ratetol=1.0 / qcomp=0.60 / qpmin=10 / qpmax=51 / qpstep=4 / cplxblur=20.0 / qblur=0.5 / ip_ratio=1.40 / aq=1:1.00
Language : Russian

Audio
ID : 2
Format : AC-3
Format/Info : Audio Coding 3
Codec ID : A_AC3
Duration : 1h 32mn
Bit rate mode : Constant
Bit rate : 448 Kbps
Channel(s) : 6 channels
Channel positions : Front: L C R, Surround: L R, LFE
Sampling rate : 48.0 KHz
Stream size : 298 MiB (20%)
Title : Original
Language : Russian

Разда
58b848613935e7196fb646319ed62316c873673cЛюбовь в большом городе 2 (Марюс Вайсберг, романтическая комедия, 2010) [BDRip-AVC, оригинал] Любовь в большом городе 2 (Марюс Вайсберг, романтическая комедия, 2010) [BDRip-AVC, оригинал] " />

Аплоадер: Админ, дата: 12-01-2012, 06:19, торрент скачан: 359 раз

Понравилась раздача? Посмотрите эти:
  • Любовь в большом городе 3(Марюс Вайсберг, Дэвид Додсон, комедия, 2013) [DVD ...
  • Любовь в большом городе 3(Марюс Вайсберг, Дэвид Додсон, комедия, 2013) [DVD ...
  • Любовь в большом городе 3(Марюс Вайсберг, Дэвид Додсон, комедия, 2013) [DVD ...
  • [Тизер] Любовь в большом городе 3 (Марюс Вайсберг, Дэвид Додсон, комедия) [ ...
  • UFC - Best Of 2012 Year In Review[MMA,2013, BDRip 540p]
  • Смерть на похоронах / Death at a Funeral (Нил ЛаБут, комедия, 2010) [BDRip ...
  • Любовь в большом городе 2 (Марюс Вайсбер, комедия, 2010) [HDRip, Оригинал] ...
  • Любовь в большом городе (Марюс Вайсберг, романтическая комедия, 2009) [BDRi ...
  • Дитя человеческое / Children of Men (Альфонсо Куарон, фантастика, триллер, ...
  • Команда «А» / The A-Team (Джо Карнахан, боевик, триллер, комедия, приключен ...
  • Вальгалла: Сага о викинге / Valhalla Rising (Николас Виндинг Рёфн, боевик, ...
  • Сутенер / Le mac (Паскаль Бюрдо / Pascal Bourdiaux, комедия, криминал, 2010 ...
  • Повторяющие / Repeaters (Карл Бессай, фантастика, боевик, триллер, драма, к ...
  • Приготовление и начало / Prep And Landing (Кевин Детерс, мультфильм, коротк ...
  • [3D] Panasonic Demo Disc 3D 2010-2011 [BDrip-AVC 1080p-720p][Оригинал][Anam ...
  • [3D] Ржевский против Наполеона (Марюс Вайсберг, комедия, 2012) [BDRip1080p, ...
  • [3D] Ржевский против Наполеона 3D (Марюс Вайсберг, Комедия, 2012) [BDRip, Н ...
  • Любовь в большом городе 2 (Марюс Вайсберг, Комедия, 2010) [BDRip 720p, Ориг ...
  • Rihanna / Live At Rock In Rio [2010, R&B, TVRip]
  • Mylene Farmer / Du Temps [2011, Pop, HDTVRip]
  • Mylene Farmer / Bleu Noir [2011, Pop, HDTVRip]
  • Любовь в большом городе (Марюс Вайсберг, Романтическая комедия, 2009) [BDRi ...
  • Любовь в большом городе 2 (Фильм о фильме) (документальный, романтическая к ...
  • Любовь в большом городе 2 (Марюс Вайсбер, комедия, 2010) [BDRip, Оригинал] ...
  • Суперкубок Испании 2010 / ответный матч+награждение, Барселона – Севилья / ...
  • Информация
    Посетители, находящиеся в группе Гости, не могут оставлять комментарии к данной публикации.