вход на сайт

Имя пользователя :
Пароль :

Восстановление пароля Регистрация
Официантка / Waitress (Эдриенн Шелли / Adrienne Shelly, Комедия, мелодрама, 2007) [HDTVRip-AVC, Профессиональный (многоголосый) + Оригинал]
Рейтинг:
(голосов: 1)



[img]{THEME}/images/logopost.png[/img]



Официантка / Waitress
«Любовь заказов не принимает.»

Год выпуска: 2007
Страна: США
Производство: Night and Day Pictures, Fox Searchlight
Жанр: Комедия, мелодрама

Режиссёр: Эдриенн Шелли / Adrienne Shelly
В ролях: Кери Рассел, Натан Филлион, Шерил Хайнс, Джереми Систо, Энди Гриффит,Эдриенн Шелли, Эдди Джемисон, Лью Темпл, Дэрби Стэнчфилд, Хайди Сулцман, и др.

Перевод: Профессиональный (многоголосый) + Оригинал
Субтитры: Русские, английские

Описание: Беременная официантка Дженна работает в скромной закусочной «Обед у Джо». Разнося по столикам заказы, Дженна придумывает новые рецепты пирогов. Её мечта — выиграть соревнования по кулинарному искусству. Но это лишь мечты. Ревнивец-муж Эрл не желает отпускать супругу. Новость о беременности, как гром среди ясного неба. Рецепт пирога «Я не хочу ребёнка от Эрла» не заставил себя долго ждать. Единственная отрада — симпатичный доктор Поматтер, недавно прибывший в город. Он женат, но разве это проблема?..

Дата премьеры (мир): 21 января 2007
Дата премьеры (РФ): 27 сентября 2007, «Фокс/Гемини»
Качество: HDTVRip-AVC
Продолжительность: 01:43:24

Формат: MKV
Видео кодек: x264
Аудио кодек: AC-3
Видео: 1024х576 (16:9), 25.000 кадр/сек, ~1.750 кбит/сек, 0.116 bit/pixel
Аудио 1: 48 kHz, AC-3, 6 ch, ~384 kbps | Профессиональный (многоголосый)
Аудио 2: 48 kHz, AC-3, 2 ch, ~192 kbps | Оригинал

MediaInfo ▼TextC:Waitress.2007.x264.HDTVRip.AVC.mkv
General
Complete name : C:Waitress.2007.x264.HDTVRip.AVC.mkv
Format : Matroska
File size : 1.68 GiB
Duration : 1h 43mn
Overall bit rate : 2 328 Kbps
Movie name : GrupoHDS miguel_zaragoza
Encoded date : UTC 2011-12-30 06:22:41
Writing application : mkvmerge v4.6.0 (Still Crazy After All These Years) сборка от Apr 1 2011 21:01:49
Writing library : libebml v1.2.0 + libmatroska v1.1.0
Video #1
ID : 1
Format : AVC
Format/Info : Advanced Video Codec
Format profile : [email protected]
Format settings, CABAC : Yes
Format settings, ReFrames : 8 frames
Muxing mode : Container [email protected]
Codec ID : V_MPEG4/ISO/AVC
Duration : 1h 43mn
Bit rate : 1 705 Kbps
Nominal bit rate : 1 750 Kbps
Width : 1 024 pixels
Height : 576 pixels
Display aspect ratio : 16:9
Frame rate : 25.000 fps
Resolution : 8 bits
Colorimetry : 4:2:0
Scan type : Progressive
Bits/(Pixel*Frame) : 0.116
Stream size : 1.23 GiB (73%)
Title : Ofitsiantka / Waitress
Writing library : x264 core 115 r1937 aa21558
Encoding settings : cabac=1 / ref=8 / deblock=1:-1:-1 / analyse=0x3:0x133 / me=umh / subme=7 / psy=1 / psy_rd=1.00:0.10 / mixed_ref=1 / me_range=16 / chroma_me=1 / trellis=2 / 8x8dct=1 / cqm=0 / deadzone=21,11 / fast_pskip=0 / chroma_qp_offset=-3 / threads=6 / sliced_threads=0 / nr=0 / decimate=1 / interlaced=0 / bluray_compat=0 / constrained_intra=0 / bframes=4 / b_pyramid=2 / b_adapt=2 / b_bias=0 / direct=3 / weightb=1 / open_gop=0 / weightp=2 / keyint=250 / keyint_min=25 / scenecut=40 / intra_refresh=0 / rc_lookahead=50 / rc=2pass / mbtree=1 / bitrate=1750 / ratetol=1.0 / qcomp=0.60 / qpmin=0 / qpmax=69 / qpstep=4 / cplxblur=20.0 / qblur=0.5 / ip_ratio=1.40 / aq=1:1.00
Audio #2
ID : 2
Format : AC-3
Format/Info : Audio Coding 3
Codec ID : A_AC3
Duration : 1h 43mn
Bit rate mode : Constant
Bit rate : 384 Kbps
Channel(s) : 6 channels
Channel positions : Front: L C R, Surround: L R, LFE
Sampling rate : 48.0 KHz
Stream size : 284 MiB (16%)
Title : Zakadrovyi
Language : Russian
Audio #3
ID : 3
Format : AC-3
Format/Info : Audio Coding 3
Codec ID : A_AC3
Duration : 1h 43mn
Bit rate mode : Constant
Bit rate : 192 Kbps
Channel(s) : 2 channels
Channel positions : L R
Sampling rate : 48.0 KHz
Stream size : 142 MiB (8%)
Title : Original
Text #4
ID : 4
Format : UTF-8
Codec ID : S_TEXT/UTF8
Codec ID/Info : UTF-8 Plain Text
Title : Russkie
Language : Russian
Text #5
ID : 5
Format : UTF-8
Codec ID : S_TEXT/UTF8
Codec ID/Info : UTF-8 Plain Text
Title : Rip by _parovoz_





145bfb6d4c7a7dc78f206e806290a75d7dfa60daОфициантка / Waitress (Эдриенн Шелли / Adrienne Shelly, Комедия, мелодрама, 2007) [HDTVRip-AVC, Профессиональный (многоголосый) + Оригинал] Официантка / Waitress (Эдриенн Шелли / Adrienne Shelly, Комедия, мелодрама, 2007) [HDTVRip-AVC, Профессиональный (многоголосый) + Оригинал] " />

Аплоадер: Админ, дата: 4-01-2012, 05:45, торрент скачан: 359 раз

Понравилась раздача? Посмотрите эти:
  • За кадром... / In a World...(Лэйк Белл, комедия, 2013) [BDRip-AVC, Професси ...
  • UFC The Ultimate 100 Knockouts - PPV [MMA,2013, HDTVRip 720p]
  • Запретная любовь / The Edge of Love (Джон Мэйбери, Драма, мелодрама, военны ...
  • Суррогат / The Sessions (Бен Луин, драма, 2012) [BDRip 720p, Профессиональн ...
  • Зубная фея 2 / Tooth Fairy 2 (Алекс Замм, комедия, семейный, 2012) [BDRip 7 ...
  • Убить по расписанию / Ticking Clock (Эрни Барбараш, фантастика, боевик, три ...
  • Властелин измерений / Grande ourse - La cle des possibles (Патрис Сов, фант ...
  • Хранитель времени / Hugo (Мартин Скорсезе, Драма, 2011) [BDRip-AVC, Професс ...
  • Хранитель времени / Hugo (Мартин Скорсезе, Драма, 2011) [BDRip-AVC, Професс ...
  • Только ты / Only You (Норман Джуисон. мелодрама, комедия. 1994) [HDTVRip, П ...
  • Персонаж / Stranger Than Fiction (Марк Форстер, Комедия, драма, фантастика, ...
  • Выпускной / Prom (Джо Нуссбаум, драма, мелодрама, комедия, 2011) [BDRip-AVC ...
  • Терминал / The Terminal (Стивен Спилберг, комедия, мелодрама, драма, 2004) ...
  • Неуловимый Люк / Lucky Luke (Джеймс Хат, Вестерн, 2009) [HDRip-AVC, Професс ...
  • Учитель на замену / Detachment (Тони Кэй, драма, 2011) [BDRip-AVC, Професси ...
  • Звездный десант: Вторжение / Starship Troopers: Invasion (Синдзи Арамаки, м ...
  • Рыжий пес / Red Dog (Крив Стендерс, драма, комедия, семейный, 2011) [BDRip ...
  • Чемпионат Европы 2012 / 1/4 финала / Чехия - Португалия / Спорт 1 HD [Футбо ...
  • Чемпионат Европы 2012 / 1/2 финала / Португалия - Испания / Спорт 1 HD [Фу ...
  • Чемпионат Европы 2012 / 1/2 финала / Германия - Италия / Спорт 1 HD [Футбо ...
  • Формула 1. Сезон 2012. Этап 13 из 20. Гран-При Италии, Квалификация. [2012 ...
  • Mylene Farmer / Du Temps [2011, Pop, HDTVRip]
  • Mylene Farmer / Bleu Noir [2011, Pop, HDTVRip]
  • Нет мужчин - нет проблем / Without Men (Габриела Тальявини / Gabriela Tagli ...
  • The Dream Team - NBA TV Documentary [Баскетбол,13.06.2012, HDTVRip/720p, MP ...
  • Информация
    Посетители, находящиеся в группе Гости, не могут оставлять комментарии к данной публикации.