вход на сайт

Имя пользователя :
Пароль :

Восстановление пароля Регистрация
Беременный (Сарик Андреасян, комедия, 2011) [BDRip-AVC, Оригинал+Sub (RUS)]
Рейтинг:
(голосов: 1)



[img]{THEME}/images/logopost.png[/img]



Беременный

Год выпуска: 2011
Страна: Россия
Производство: Enjoy Movies
Жанр: комедия

Режиссёр: Сарик Андреасян
В ролях: Дмитрий Дюжев, Михаил Галустян, Анна Седокова, Вилле Хаапасало, Светлана Ходченкова, Дмитрий Шаракоис, Дмитрий Хрусталев, Виктор Васильев, Валентин Смирнитский, Людмила Артемьева

Перевод: Оригинал
Субтитры: Русские

Описание: Главный герой - ведущий новостей на музыкальном канале Сергей Добролюбов. Своим консерватизмом он явно выбивается из коллектива модного канала. Его скепсис по отношению к чему-то новому - повод для насмешек коллег. Он точно не «звезда» канала.

Сергей с женой очень хотят ребенка, но у них есть с этим проблемы. Помочь им может чудо, но Сергей в чудеса не верит… до определенного момента.

Чудесным образом желание Сергея иметь ребенка исполняется… он беременеет?! Теперь уже нашему герою предстоит выступить перед близкими живым доказательством того, что чудеса случаются! Особенно символично, что эту новость жена, родители, брат, друг Жора узнали за ужином в честь Дня защитников Отечества. У последнего оказался вполне практичный подход к чуду. Жора убедил Сергея, что беременность не повод скрываться, а возможность обрести славу и деньги. Шоу «Беременный» становится самым популярным телевизионным проектом, а его главный герой - Сергей Добролюбов - настоящей звездой. Но совмещение статусов «мужчины, ждущего ребенка» и «звезды» оказывается непростой задачей.Дата премьеры (мир): 21 июля 2011
Дата премьеры (РФ): 8 сентября 2011, «Каропрокат»
Качество: BDRip-AVC
Продолжительность: 01:23:54

Формат: MKV
Видео кодек: x264
Аудио кодек: AC3
Видео: 1024x436 (2.35:1), 24.000 fps, x264~2 033 kbps avg, 0.190 bit/pixel
Аудио: 48 kHz, AC3 Dolby Digital, 3/2 (L,C,R,l,r) + LFE ch, ~448 kbps

MediaInfo ▼TextGeneral
Unique ID : 237751085557301252082584344467032692992 (0xB2DD31891EC3BDA5B87AE15D787AD900)
Complete name : D:Beremennyy.2011.x264.BDRip.(AVC).fanatus.mkv
Format : Matroska
Format version : Version 2
File size : 1.45 GiB
Duration : 1h 23mn
Overall bit rate : 2 480 Kbps
Movie name : Beremennyy (2011) - fanatus
Encoded date : UTC 2011-12-13 15:14:39
Writing application : mkvmerge v3.4.0 (Rapunzel) сборка от May 15 2010 09:38:20
Writing library : libebml v0.8.0 + libmatroska v0.9.0

Video
ID : 1
Format : AVC
Format/Info : Advanced Video Codec
Format profile : [email protected]
Format settings, CABAC : Yes
Format settings, ReFrames : 9 frames
Codec ID : V_MPEG4/ISO/AVC
Duration : 1h 23mn
Bit rate : 2 033 Kbps
Width : 1 024 pixels
Height : 436 pixels
Display aspect ratio : 2.35:1
Frame rate : 24.000 fps
Color space : YUV
Chroma subsampling : 4:2:0
Bit depth : 8 bits
Scan type : Progressive
Bits/(Pixel*Frame) : 0.190
Stream size : 1.16 GiB (80%)
Title : Beremennyy (2011)
Writing library : x264 core 116 r2074 2641b9e
Encoding settings : cabac=1 / ref=9 / deblock=1:-3:-3 / analyse=0x3:0x133 / me=umh / subme=11 / psy=1 / psy_rd=1.00:0.05 / mixed_ref=1 / me_range=48 / chroma_me=1 / trellis=2 / 8x8dct=1 / cqm=0 / deadzone=21,11 / fast_pskip=0 / chroma_qp_offset=-3 / threads=16 / sliced_threads=0 / nr=0 / decimate=1 / interlaced=0 / bluray_compat=0 / constrained_intra=0 / bframes=9 / b_pyramid=2 / b_adapt=2 / b_bias=0 / direct=3 / weightb=1 / open_gop=0 / weightp=2 / keyint=250 / keyint_min=24 / scenecut=40 / intra_refresh=0 / rc_lookahead=60 / rc=2pass / mbtree=1 / bitrate=2033 / ratetol=1.0 / qcomp=0.60 / qpmin=0 / qpmax=69 / qpstep=4 / cplxblur=20.0 / qblur=0.5 / ip_ratio=1.40 / aq=1:0.85
Language : Russian

Audio
ID : 2
Format : AC-3
Format/Info : Audio Coding 3
Mode extension : CM (complete main)
Codec ID : A_AC3
Duration : 1h 23mn
Bit rate mode : Constant
Bit rate : 448 Kbps
Channel(s) : 6 channels
Channel positions : Front: L C R, Side: L R, LFE
Sampling rate : 48.0 KHz
Bit depth : 16 bits
Compression mode : Lossy
Stream size : 269 MiB (18%)
Title : Original
Language : Russian

Text
ID : 3
Format : UTF-8
Codec ID : S_TEXT/UTF8
Code
01571f71d20774c28d35aee924aef3b06d0e77daБеременный (Сарик Андреасян, комедия, 2011) [BDRip-AVC, Оригинал+Sub (RUS)] Беременный (Сарик Андреасян, комедия, 2011) [BDRip-AVC, Оригинал+Sub (RUS)] " />

Аплоадер: Админ, дата: 14-12-2011, 16:30, торрент скачан: 359 раз

Понравилась раздача? Посмотрите эти:
  • FLO / NRG [2012, Pop, Dance, MasterRip]
  • Разговор (Сергей Комаров, Драма, 2012) [BDRip-AVC, Hе требуется]
  • Зубная фея 2 / Tooth Fairy 2 (Алекс Замм, комедия, семейный, 2012) [BDRip 7 ...
  • Беременный (Сарик Андреасян, комедия, 2011) [HDRip-AVC, Оригинал]
  • Голодный кролик атакует / Seeking Justice (Роджер Дональдсон, боевик, 2011) ...
  • Голодный кролик атакует / Seeking Justice (Роджер Дональдсон / Roger Donald ...
  • Хранитель времени / Hugo (Мартин Скорсезе, Драма, 2011) [BDRip-AVC, Професс ...
  • «Старый» Новый год / New Years Eve (Гэрри Маршалл, Мелодрама, 2011) [BDRip- ...
  • Служебный роман. Наше время (Сарик Андреасян, мелодрама, комедия, 2011) [BD ...
  • Бедная богатая девочка / Young Adult (Джейсон Райтман, драма, комедия, 2011 ...
  • С новым годом, мамы! (Сарик Андреасян, Артем Аксененко, Дмитрий Грачев, ко ...
  • [3D] Глаз ребенка / Childs Eye (Оксид Пан, ужасы, 2010) [BDRip, Дублированн ...
  • Дети шпионов 4D / Spy Kids: All the Time in the World in 4D (Роберт Родриге ...
  • Служебный роман. Наше время (Сарик Андреасян, мелодрама, комедия, 2011) [BD ...
  • Профессионал / Killer Elite (Гэри МакКендри, Боевик, Триллер, Криминал, 201 ...
  • «Весёлые» каникулы / Get the Gringo (Адриан Грюнберг, Боевик, комедия, 2012 ...
  • Супер Майк / Magic Mike (Стивен Содерберг, Драма, комедия, 2012) [BDRip 720 ...
  • С новым годом, мамы! (Сарик Андреасян, Артем Аксененко, Дмитрий Грачев, Ком ...
  • Mylene Farmer / Du Temps [2011, Pop, HDTVRip]
  • Mylene Farmer / Bleu Noir [2011, Pop, HDTVRip]
  • С новым годом, мамы! (Сарик Андреасян, Артем Аксененко, Дмитрий Грачев, Ком ...
  • Беременный (Сарик Андреасян, Комедия, 2011) [DVD9, Оригинал]
  • Беременный (Сарик Андреасян, комедия, 2011) [BDRip, оригинал]
  • Беременный (Сарик Андреасян, комедия, 2011) [HDRip, Оригинал]
  • Беременный (Сарик Андреасян, Комедия, 2011) [320x240] [HDRip, Оригинал]
  • Информация
    Посетители, находящиеся в группе Гости, не могут оставлять комментарии к данной публикации.