вход на сайт

Имя пользователя :
Пароль :

Восстановление пароля Регистрация
Совсем не бабник / Cedar Rapids (Мигель Артета, комедия, 2011) [BDRip-AVC, Профессиональный (многоголосый закадровый) + Оригинал + SUB]
Рейтинг:
(голосов: 1)



[img]{THEME}/images/logopost.png[/img]



Совсем не бабник / Cedar Rapids

«Today Is The First Day... Of The Rest Of His Weekend.»

Год выпуска: 2011
Страна: США
Производство: Ad Hominem Enterprises
Жанр: комедия

Режиссёр: Мигель Артета / Miguel Arteta
В ролях: Эд Хелмс, Джон Си Райли, Энн Хеч, Исайя Уитлок мл., Стивен Рут, Кертвуд Смит, Алиа Шокат, Томас Леннон, Роб Кордри, Майк О’Мэлли, Сигурни Уивер...

Перевод: Профессиональный (многоголосый закадровый) + Оригинал
Субтитры: Русские Украинские Английские Испанские Французкие

Описание: После того, как его коллега умирает от асфиксии во время акта самоудовлетворения, наивный провинциал из захолустья занимает его место в райцентре, теряя голову от соблазнов «большого города», постепенно выходя из раковины и раскрывая махинацию по отмывке денег с участием своего нанимателя.



Качество: BDRip-AVC
Продолжительность: 01:26:56

Формат: MKV
Видео кодек: H264
Аудио кодек: AC3
Видео: 1040x560 (1,857:1), 23,976 fps, H264 ~ 2759 kbps avg, 0.198 bit/pixel
Аудио1: 48 kHz, AC3, 6 ch, 384.00 kbps Constant - Профессиональный (многоголосый закадровый)
Аудио2: 48 kHz, AC3, 6 ch, 384.00 kbps Constant - Оригинал
Субтитры1: Русские UTF-8
Субтитры2: Украинские UTF-8
Субтитры3: Английские UTF-8
Субтитры4: Испанские UTF-8
Субтитры5: Французкие UTF-8

Дата премьеры (мир): 23 января 2011
Дата премьеры (РФ): 6 октября 2011, «Люксор»

MediaInfo ▼Общее
Полное имя : Sovsem.ne.babnik.2011Sovsem.ne.babnik.2011.BDRip-AVC.mkv
Формат : Matroska
Версия формата : Version 2
Размер файла : 2,18 Гбайт
Продолжительность : 1 ч. 26 м.
Общий поток : 3591 Кбит/сек
Название фильма : Sovsem.ne.babnik.2011.BDRip-AVC
Дата кодирования : UTC 2011-11-23 10:50:46
Программа кодирования : mkvmerge v5.0.1 (Es ist Sommer) built on Oct 9 2011 11:55:43
Библиотека кодирования : libebml v1.2.2 + libmatroska v1.3.0
Видео
Идентификатор : 1
Формат : AVC
Формат/Информация : Advanced Video Codec
Профиль формата : [email protected]
Параметр CABAC формата : Да
Параметр ReFrames формата : 8 кадров
Идентификатор кодека : V_MPEG4/ISO/AVC
Продолжительность : 1 ч. 26 м.
Битрейт : 2759 Кбит/сек
Ширина : 1040 пикселей
Высота : 560 пикселей
Соотношение сторон : 1,857
Частота кадров : 23,976 кадра/сек
Цветовое пространство : YUV
Субдискретизация насыщенности : 4:2:0
Битовая глубина : 8 бит
Тип развёртки : Прогрессивная
Бит/(Пиксели*Кадры) : 0.198
Размер потока : 1,63 Гбайт (75%)
Заголовок : Источник BDRemux
Библиотека кодирования : x264 core 114 r1913 5fd3dce
Настройки программы : cabac=1 / ref=8 / deblock=1:-2:-1 / analyse=0x3:0x113 / me=umh / subme=9 / psy=1 / psy_rd=1.00:0.10 / mixed_ref=1 / me_range=32 / chroma_me=1 / trellis=1 / 8x8dct=1 / cqm=0 / deadzone=21,11 / fast_pskip=1 / chroma_qp_offset=-3 / threads=3 / sliced_threads=0 / nr=0 / decimate=1 / interlaced=0 / constrained_intra=0 / bframes=8 / b_pyramid=2 / b_adapt=1 / b_bias=0 / direct=3 / weightb=1 / open_gop=0 / weightp=0 / keyint=250 / keyint_min=23 / scenecut=40 / intra_refresh=0 / rc_lookahead=60 / rc=2pass / mbtree=1 / bitrate=2759 / ratetol=1.0 / qcomp=0.60 / qpmin=0 / qpmax=69 / qpstep=4 / cplxblur=20.0 / qblur=0.5 / ip_ratio=1.40 / aq=1:1.00
Язык : English
Default : Да
Forced : Нет
Аудио #1
Идентификатор : 2
Формат : AC-3
Формат/Информация : Audio Coding 3
Расширение режима : CM (complete main)
Идентификатор кодека : A_AC3
Продолжительность : 1 ч. 26 м.
Вид битрейта : Постоянный
Битрейт : 384 Кбит/сек
Каналы : 6 каналов
Расположение каналов : Front: L C R, Side: L R, LFE
Частота : 48,0 КГц
Битовая глубина : 16 бит
Метод сжатия : С потерями
Размер потока : 239 Мбайт (11%)
Заголовок : Источник BDRemux
Default : Да
Forced : Нет
Аудио #2
Идентификатор : 3
Формат : AC-3
Формат/Информация : Audio Coding 3
Расширение режима : CM (complete main)
Идентификатор кодека : A_AC3
Продолжительность : 1 ч. 26 м.
Вид битрейта : Постоянный
Битрейт : 448 Кбит/сек
Каналы : 6 каналов
Расположение каналов : Front: L C R, Side: L R, LFE
Частота : 48,0 КГц
Битовая глубина
952d70c28ad8ade978f65d91e4c13bb2e6404c44Совсем не бабник / Cedar Rapids (Мигель Артета, комедия, 2011) [BDRip-AVC, Профессиональный (многоголосый закадровый) + Оригинал + SUB] Совсем не бабник / Cedar Rapids (Мигель Артета, комедия, 2011) [BDRip-AVC, Профессиональный (многоголосый закадровый) + Оригинал + SUB] " />

Аплоадер: Админ, дата: 24-11-2011, 06:45, торрент скачан: 359 раз

Понравилась раздача? Посмотрите эти:
  • Очень плохая училка [Расширенная версия] / Bad Teacher (Джейк Кэздан, Комед ...
  • Миллион для чайников / The Brass Teapot (Рамаа Мосли, драма, биография, ист ...
  • Рикошет / Ricochet (Ник Гомез, драма, детектив, 2011) [BDRip-AVC, Профессио ...
  • Бульвар спасения / Salvation Boulevard (Джордж Рэтлифф, боевик, триллер, др ...
  • Суррогат / The Sessions (Бен Луин, Драма, 2012) [BDRip-AVC, Профессиональны ...
  • Ошибка телохранителя / The Girl from the Naked Eye (Дэвид Рен, боевик, трил ...
  • Главное - не бояться! / A Little Bit of Heaven (Николь Кэссел / Nicole Kass ...
  • Совсем не бабник / Cedar Rapids (Мигель Артета, комедия, 2011) [HDRip-AVC, ...
  • Иностранный легион / La cité (Ким Нгуйен / Kim Nguyen, драма, 2010) [DVDRip ...
  • Драйв / Drive (Николас Виндинг Рёфн, боевик, триллер, драма, криминал, 2011 ...
  • Переростки / The Inbetweeners (Бен Палмер, Комедия, 2011) [BDRip-AVC, Профе ...
  • Убойное Рождество Гарольда и Кумара / A Very Harold & Kumar Christmas (Тодд ...
  • Эд Вуд / Ed Wood (Тим Бёртон, драма, комедия, биография, 1994) [BDRip-AVC, ...
  • Заражение / Contagion (Стивен Содерберг, Фантастика, 2011) [BDRip 1080p, Пр ...
  • Павшая империя / Hirokin (Алехо Мо-Сан, фантастика, боевик, драма, приключе ...
  • Совсем не бабник / Cedar Rapids (Мигель Артета,комедия,2011) [HDRip,Професс ...
  • Совсем не бабник / Cedar Rapids (Мигель Артета, комедия , 2011) [HDRip, Про ...
  • Совсем не бабник / Cedar Rapids (Мигель Артета,комедия,2011) [HDRip,Професс ...
  • Совсем не бабник / Cedar Rapids (Мигель Артета, комедия , 2011) [HDRip, Про ...
  • Совсем не бабник / Cedar Rapids (Мигель Артета, комедия, 2011) [BDRip, Полн ...
  • Информация
    Посетители, находящиеся в группе Гости, не могут оставлять комментарии к данной публикации.