вход на сайт

Имя пользователя :
Пароль :

Восстановление пароля Регистрация
Пингвины мистера Поппера/ Mr. Poppers Penguins (Марк С. Уотерс, комедия, семейный, 2011) [BDRip-AVC, Дублированый [лицензия] + SUB(Eng,Rus,Ukr)]
Рейтинг:
(голосов: 1)



[img]{THEME}/images/logopost.png[/img]



Пингвины мистера Поппера / Mr. Poppers Penguins

Год выпуска: 2011
Страна: США
Производство: Twentieth Century Fox Film Corporation
Жанр: комедия, семейный

Режиссёр: Марк С. Уотерс
В ролях: Джим Керри, Карла Гуджино, Анджела Лэнсбери, Офелия Ловибонд, Мадлен Кэрролл, Кларк Грегг, Джефри Тэмбор, Дэвид Крамхолц, Филип Бейкер, Холл Максвелл, Перри Коттон

Перевод: Дублированый [лицензия]
Субтитры: Русские, Украинские, Английские (SRT)

Описание: Какую только свинью порой не подложит судьба! Правда, на этот раз она решила обойтись более экзотическими животными. Преуспевающий бизнесмен получает в наследство шестерых пингвинов и буквально влюбляется в них. Работа оказывается заброшенной, шикарные апартаменты превращаются в заснеженную обитель, дело даже почти доходит до тюрьмы. Но стоит ли сожалеть о мишуре, пусть даже и золотой, если взамен тебе открывается такой необычный, и вместе с тем такой настоящий мир?



Релиз: | Vaippp


Качество: BDRip-AVC
Продолжительность: 01:34:21

Формат: MKV
Видео кодек: x264
Аудио кодек: AC3
Видео: 1056x572(1.85:1), 23.976 fps,~1 760 kbps avg, 0.122 bit/pixel
Аудио: 48 kHz, AC3 Dolby Digital, 3/2 (L,C,R,l,r) + LFE ch, ~448 kbps

MediaInfo ▼TextGeneral
Unique ID : 224566872062127958802948196230118448632 (0xA8F2019FA42C66EFABE8E965229B1DF8)
Complete name : I:OtherPingviny.Mistera.Poppera.2011.RUS.BDRip-AVC.AC3.-HQ-ViDEO.mkv
Format : Matroska
Format version : Version 2
File size : 1.46 GiB
Duration : 1h 34mn
Overall bit rate : 2 209 Kbps
Movie name : Pingviny Mistera Poppera / 2011 / Release by Vaippp / HQ-ViDEO
Encoded date : UTC 2011-11-22 11:54:12
Writing application : mkvmerge v5.0.1 (Es ist Sommer) built on Oct 9 2011 11:55:43
Writing library : libebml v1.2.2 + libmatroska v1.3.0

Video
ID : 1
Format : AVC
Format/Info : Advanced Video Codec
Format profile : [email protected]
Format settings, CABAC : Yes
Format settings, ReFrames : 13 frames
Codec ID : V_MPEG4/ISO/AVC
Duration : 1h 34mn
Bit rate : 1 760 Kbps
Width : 1 056 pixels
Height : 572 pixels
Display aspect ratio : 16:9
Frame rate : 23.976 fps
Color space : YUV
Chroma subsampling : 4:2:0
Bit depth : 8 bits
Scan type : Progressive
Bits/(Pixel*Frame) : 0.122
Stream size : 1.13 GiB (78%)
Title : BDRip 22/11/2011
Writing library : x264 core 119 r2106kMod 07efeb4
Encoding settings : cabac=1 / ref=13 / deblock=1:-3:-2 / analyse=0x3:0x113 / me=umh / subme=10 / psy=1 / fade_compensate=0.80 / psy_rd=1.10:0.05 / mixed_ref=1 / me_range=32 / chroma_me=1 / trellis=2 / 8x8dct=1 / cqm=0 / deadzone=21,11 / fast_pskip=0 / chroma_qp_offset=-2 / threads=12 / sliced_threads=0 / nr=0 / decimate=1 / interlaced=0 / bluray_compat=0 / constrained_intra=0 / bframes=12 / b_pyramid=2 / b_adapt=2 / b_bias=0 / direct=3 / weightb=1 / open_gop=0 / weightp=2 / keyint=250 / keyint_min=23 / scenecut=40 / intra_refresh=0 / rc_lookahead=80 / rc=2pass / mbtree=1 / bitrate=1760 / ratetol=1.0 / qcomp=0.65 / qpmin=0 / qpmax=69 / qpstep=4 / cplxblur=20.0 / qblur=0.5 / vbv_maxrate=40000 / vbv_bufsize=30000 / nal_hrd=none / ip_ratio=1.35 / aq=3:1.10 / zones=125843,128959,b=0.4/128960,135730,q=35
Language : English
Default : Yes
Forced : No
Matrix coefficients : BT.709-5, BT.1361, IEC 61966-2-4 709, SMPTE RP177

Audio
ID : 2
Format : AC-3
Format/Info : Audio Coding 3
Mode extension : CM (complete main)
Codec ID : A_AC3
Duration : 1h 34mn
Bit rate mode : Constant
Bit rate : 448 Kbps
Channel(s) : 6 channels
Channel positions : Front: L C R, Side: L R, LFE
Sampling rate : 48.0 KHz
Bit depth : 16 bits
Compression mode : Lossy
Stream size : 302 MiB (20%)
Title : DUB @ Blu-Ray CEE
Langua
7a78f886422166c0cb560de8b066c3d791082efbПингвины мистера Поппера/ Mr. Poppers Penguins (Марк С. Уотерс, комедия, семейный, 2011) [BDRip-AVC, Дублированый [лицензия] + SUB(Eng,Rus,Ukr)] Пингвины мистера Поппера/ Mr. Poppers Penguins (Марк С. Уотерс, комедия, семейный, 2011) [BDRip-AVC, Дублированый [лицензия] + SUB(Eng,Rus,Ukr)] " />

Аплоадер: Админ, дата: 22-11-2011, 23:49, торрент скачан: 359 раз

Понравилась раздача? Посмотрите эти:
  • Спайдервик: Хроники / The Spiderwick Chronicles (Марк С. Уотерс, Фэнтези, п ...
  • Зубная фея 2 / Tooth Fairy 2 (Алекс Замм, комедия, семейный, 2012) [BDRip 7 ...
  • Пингвины мистера Поппера/ Mr. Poppers Penguins (Марк С. Уотерс, комедия, се ...
  • Пингвины мистера Поппера / Mr. Poppers Penguins (Марк С. Уотерс, комедия, с ...
  • Пингвины мистера Поппера / Mr. Poppers Penguins (Марк С. Уотерс, Комедия, с ...
  • Пингвины мистера Поппера / Mr. Poppers Penguins (Марк С. Уотерс, комедия, с ...
  • Мальчишник 2: Из Вегаса в Бангкок / The Hangover Part II (Тодд Филлипс, ком ...
  • Супер 8 / Super 8 (Джей Джей Абрамс , фантастика , триллер , детектив ,2011 ...
  • Аноним / Anonymous (Роланд Эммерих, триллер, драма, 2011) [BDRip-AVC, Профе ...
  • Кориолан / Coriolanus (Рэйф Файнс, триллер, драма, 2011) [BDRip-AVC, Дубли ...
  • Проект X: Дорвались / Project X (Нима Нуризаде, комедия, 2012) [BDRip-AVC, ...
  • Первый мститель / Captain America: The First Avenger (Джо Джонстон , фантас ...
  • Кунг-фу Панда 2 / Kung Fu Panda 2 (Дженнифер Ю, мультфильм, боевик, комеди ...
  • Кот в сапогах / Puss in Boots (Крис Миллер, мультфильм, 2011) [ВDRip-AVC, П ...
  • [3D] Кот и цыплёнок / I Tawt I Taw а Puddy Tat (Мэттью ОКаллаган / Matthew ...
  • Мой парень из зоопарка / Zookeeper (Фрэнк Корачи, мелодрама, комедия, семей ...
  • Дети шпионов 4D / Spy Kids: All the Time in the World in 4D (Роберт Родриге ...
  • Пингвины мистера Поппера / Mr. Poppers Penguins (Марк С. Уотерс, комедия, с ...
  • «Старый» Новый год / New Years Eve (Гэрри Маршалл, мелодрама, комедия, 2011 ...
  • Джок / Jock (Дункан МакНили, мультфильм, комедия, приключения, семейный, 20 ...
  • Mylene Farmer / Du Temps [2011, Pop, HDTVRip]
  • Mylene Farmer / Bleu Noir [2011, Pop, HDTVRip]
  • [PSP-VIDEO]Пингвины мистера Поппера/ Mr. Poppers Penguins (Марк С. Уотерс, ...
  • [iPhone, iPod, iPad] Пингвины мистера Поппера / Mr. Poppers Penguins (Марк ...
  • Профессионал / Killer Elite (Гэри МакКендри, боевик, триллер, криминал, 201 ...
  • Информация
    Посетители, находящиеся в группе Гости, не могут оставлять комментарии к данной публикации.