вход на сайт

Имя пользователя :
Пароль :

Восстановление пароля Регистрация
Пингвины мистера Поппера/ Mr. Poppers Penguins (Марк С. Уотерс, комедия, семейный, 2011) [HDRip-AVC, Дубляж + оригинал]
Рейтинг:
(голосов: 1)



[img]{THEME}/images/logopost.png[/img]



Пингвины мистера Поппера/ Mr. Poppers Penguins


Год выпуска: 2011
Страна: США
Производство: Twentieth Century Fox Film Corporation
Жанр:комедия, семейный

Режиссёр: Марк С. Уотерс
В ролях: Джим Керри, Карла Гуджино, Анджела Лэнсбери, Офелия Ловибонд, Мадлен Кэрролл, Кларк Грегг, Джефри Тэмбор, Дэвид Крамхолц, Филип Бейкер, Холл Максвелл, Перри Коттон

Перевод: дублированный [лицензия] + оригинал
Субтитры:русские, английские, португальские, испанские

Описание: Какую только свинью порой не подложит судьба! Правда, на этот раз она решила обойтись более экзотическими животными.

Преуспевающий бизнесмен получает в наследство шестерых пингвинов и буквально влюбляется в них. Работа оказывается заброшенной, шикарные апартаменты превращаются в заснеженную обитель, дело даже почти доходит до тюрьмы. Но стоит ли сожалеть о мишуре, пусть даже и золотой, если взамен тебе открывается такой необычный, и вместе с тем такой настоящий мир?

IMDB: рейтинг5.90 (10 603)
КиноПоиск: рейтинг 6.899 (8 313)

Качество: HDRip-AVC
Продолжительность: 01:32:07

Формат: MKV
Видео кодек: H264
Аудио кодек: AC3
Видео: 1024x552 (1.855:1) at 23.976 fps, [email protected], ~2418 kbps avg, 0.178 bit/pixel
Аудио #1: 48 kHz, AC3, 6 ch, 448.00 kbps
Аудио #1: 48 kHz, AC3, 6 ch, 448.00 kbps
Чаптеры: есть


"MediaInfo" ▼TextОбщее
Полное имя : Pingviny.mistera.Poppera.2011.HDRip-AVC.mkv
Формат : Matroska
Версия формата : Version 2
Размер файла : 2,18 Гбайт
Продолжительность : 1 ч. 34 м.
Общий поток : 3311 Кбит/сек
Название фильма : Pingviny.mistera.Poppera.2011.HDRip-AVC
Дата кодирования : UTC 2011-11-16 15:28:23
Программа кодирования : mkvmerge v5.0.1 (Es ist Sommer) built on Oct 9 2011 11:55:43
Библиотека кодирования : libebml v1.2.2 + libmatroska v1.3.0
Видео
Идентификатор : 1
Формат : AVC
Формат/Информация : Advanced Video Codec
Профиль формата : [email protected]
Параметр CABAC формата : Да
Параметр ReFrames формата : 11 кадров
Идентификатор кодека : V_MPEG4/ISO/AVC
Продолжительность : 1 ч. 34 м.
Битрейт : 2418 Кбит/сек
Ширина : 1024 пикселя
Высота : 552 пикселя
Соотношение сторон : 1,855
Частота кадров : 23,976 кадра/сек
Цветовое пространство : YUV
Субдискретизация насыщенности : 4:2:0
Битовая глубина : 8 бит
Тип развёртки : Прогрессивная
Бит/(Пиксели*Кадры) : 0.178
Размер потока : 1,55 Гбайт (71%)
Заголовок : Источник BDRip-AVC 1080p
Библиотека кодирования : x264 core 114 r1913 5fd3dce
Настройки программы : cabac=1 / ref=11 / deblock=1:-2:-1 / analyse=0x3:0x113 / me=umh / subme=9 / psy=1 / psy_rd=1.00:0.10 / mixed_ref=1 / me_range=32 / chroma_me=1 / trellis=2 / 8x8dct=1 / cqm=0 / deadzone=21,11 / fast_pskip=1 / chroma_qp_offset=-3 / threads=9 / sliced_threads=0 / nr=0 / decimate=1 / interlaced=0 / constrained_intra=0 / bframes=10 / b_pyramid=2 / b_adapt=2 / b_bias=0 / direct=3 / weightb=1 / open_gop=0 / weightp=0 / keyint=250 / keyint_min=23 / scenecut=40 / intra_refresh=0 / rc_lookahead=80 / rc=2pass / mbtree=1 / bitrate=2418 / ratetol=1.0 / qcomp=0.60 / qpmin=0 / qpmax=69 / qpstep=4 / cplxblur=20.0 / qblur=0.5 / ip_ratio=1.40 / aq=2:0.90
Язык : English
Default : Да
Forced : Нет
Аудио #1
Идентификатор : 2
Формат : AC-3
Формат/Информация : Audio Coding 3
Расширение режима : CM (complete main)
Идентификатор кодека : A_AC3
Продолжительность : 1 ч. 34 м.
Вид битрейта : Постоянный
Битрейт : 448 Кбит/сек
Каналы : 6 каналов
Расположение каналов : Front: L C R, Side: L R, LFE
Частота : 48,0 КГц
Битовая глубина : 16 бит
Метод сжатия : С потерями
Размер потока : 302 Мбайт (14%)
Заголовок : Источник Blu-ray
Default : Да
Forced : Нет
Аудио #2
Идентификатор : 3
Формат : AC-3
Формат/Информация : Audio Coding 3
Расширение режима : CM (complete main)
Идентификатор кодека : A_AC3
Продолжительность : 1 ч. 34 м.
Вид битрейта : Постоянный
Битрейт : 448 Кбит/сек
Каналы : 6 каналов
Расположение каналов : Front: L C R, Side: L R, LFE
Частота : 48,0 КГц
Битовая глубина : 16 бит
Метод сжатия :
a6e9073acb171164e33ef92e11ae557e16f15b1dПингвины мистера Поппера/ Mr. Poppers Penguins (Марк С. Уотерс, комедия, семейный, 2011) [HDRip-AVC, Дубляж + оригинал] Пингвины мистера Поппера/ Mr. Poppers Penguins (Марк С. Уотерс, комедия, семейный, 2011) [HDRip-AVC, Дубляж + оригинал] " />

Аплоадер: Админ, дата: 17-11-2011, 02:27, торрент скачан: 359 раз

Понравилась раздача? Посмотрите эти:
  • Толстяк на ринге / Here Comes the Boom (Фрэнк Корачи, Боевик, комедия, 2012 ...
  • Страшно красив / Beastly (Даниел Барнз, фэнтези, драма, мелодрама, 2011) [H ...
  • Пингвины мистера Поппера / Mr. Poppers Penguins (Марк С. Уотерс, комедия, с ...
  • Пингвины мистера Поппера / Mr. Poppers Penguins (Марк С. Уотерс, Комедия, с ...
  • Пингвины мистера Поппера / Mr. Poppers Penguins (Марк С. Уотерс, комедия, с ...
  • Пингвины мистера Поппера/ Mr. Poppers Penguins (Марк С. Уотерс, комедия, се ...
  • Совсем не бабник / Cedar Rapids (Мигель Артета, комедия, 2011) [BDRip-AVC, ...
  • Начинающие / Beginners (Майк Миллс / Mike Mills, драма, мелодрама, комедия, ...
  • Главное - не бояться! / A Little Bit of Heaven (Николь Кэссел / Nicole Kass ...
  • Погоня / Abduction (Джон Синглтон, боевик, триллер, драма, детектив, 2011) ...
  • Иностранный легион / La cité (Ким Нгуйен / Kim Nguyen, драма, 2010) [DVDRip ...
  • Драйв / Drive (Николас Виндинг Рёфн, боевик, триллер, драма, криминал, 2011 ...
  • Профессионал / Killer Elite (Гэри МакКендри, боевик, 2011) [BDRip-AVC, Проф ...
  • Переростки / The Inbetweeners (Бен Палмер, Комедия, 2011) [BDRip-AVC, Профе ...
  • Проект X: Дорвались / Project X (Нима Нуризаде, комедия, 2012) [BDRip - AVC ...
  • Тонкий Лед / The Convincer (Джилл Шпрехер, Драма, комедия, криминал, 2011) ...
  • Убойное Рождество Гарольда и Кумара / A Very Harold & Kumar Christmas (Тодд ...
  • Третий лишний / Ted (Сет МакФарлейн, Фэнтези, комедия, 2012) [BDRip-AVC, Ду ...
  • Помогите Стать Отцом / Not Suitable For Children (Питер Темплмен, Мелодрама ...
  • Пингвины мистера Поппера / Mr. Poppers Penguins (Марк С. Уотерс, комедия, с ...
  • Заражение / Contagion (Стивен Содерберг, Фантастика, 2011) [BDRip 1080p, Пр ...
  • Секретная служба Санта-Клауса / Arthur Christmas (Сара Смит, Бэрри Кук, Мул ...
  • [PSP-VIDEO]Пингвины мистера Поппера/ Mr. Poppers Penguins (Марк С. Уотерс, ...
  • [iPhone, iPod, iPad] Пингвины мистера Поппера / Mr. Poppers Penguins (Марк ...
  • Нико 2 / Niko 2: Lentajaveljekset (Кари Юуусонен, Юрген Лердам, Мультфильм, ...
  • Информация
    Посетители, находящиеся в группе Гости, не могут оставлять комментарии к данной публикации.