вход на сайт

Имя пользователя :
Пароль :

Восстановление пароля Регистрация
Чудаки 3D (Расширенная версия) / Jackass 3 (Unrated) (Джефф Треймейн, комедия, 2010) [BDRip-AVC,Профессиональный (дублированный)+Оригинал]
Рейтинг:
(голосов: 1)



[img]{THEME}/images/logopost.png[/img]



Чудаки 3D (Расширенная версия) / Jackass 3D (Unrated)

Год выпуска: 2010
Страна: США, Румыния
Производство: Dickhouse Productions, MTV Films
Жанр: комедия, документальный

Режиссёр: Джефф Треймейн / Jeff Tremaine
В ролях: Джонни Ноксвил, Бэм Марджера, Райан Данн, Стив-О, Джейсон Акуна, Престон Лэси, Крис Понтиус, Эрен МакГехи, Дэйв Инглэнд, Лумис Фолл

Перевод: Профессиональный (дублированный)
Субтитры: Russian, English

Описание: Скандальная, саркастическая, грубая и абсолютно сумасбродная команда Джонни Ноксвила опять готова шокировать, смешить и срывать крышу, и в этот раз они удивят еще больше. Теперь каждый может стать почти соучастником событий, поскольку наблюдать за выходками чудаков можно будет в формате 3D. Фильм состоит из ряда экстремальных трюков, нерядовых шуток и безумных экспериментов, — все это испытает на собственной шкуре эта безумная компания. Никогда не знаешь — плакать или смеяться от их выходок, ведь они демонстрируют то, что каждый тайком хотел сделать, но боялся попробовать.

IMDB: 7.1 (19145)
КиноПоиск: 6.70 (8001)

Качество:BDRip-AVC
Продолжительность: 01:39:44

Формат: MKV
Видео кодек: H.264
Аудио кодек: AC3
Видео: AVC; 1024x576 (16:9), 0.161; 23.976 fps; 2270 Kbps;
Аудио №1: Russian; AC3; 384 Kbps; 48.0 KHz; 6ch; (Front: L C R, Side: L R, LFE)
Аудио №2: English; AC3; 384 Kbps; 48.0 KHz; 6ch; (Front: L C R, Side: L R, LFE)
Формат субтитров: PGS

MediaInfo:

Код: Text
General
Unique ID : 242877436819185836381536200419126290431 (0xB6B87E2AABCB6AEAA0FF26E669C427FF)
Complete name : E:Chudaki-3D.2010.MPEG-4-AVC.BluRay-Remux(1080p)BDMVSTREAMJackass3.AVC..mkv
Format : Matroska
File size : 2.16 GiB
Duration : 1h 39mn
Overall bit rate : 3 096 Kbps
Encoded date : UTC 2011-08-12 16:57:15
Writing application : mkvmerge v4.4.0 (Die Wiederkehr) сборка от Oct 31 2010 21:52:48
Writing library : libebml v1.0.0 + libmatroska v1.0.0

Video
ID : 1
Format : AVC
Format/Info : Advanced Video Codec
Format profile : [email protected]
Format settings, CABAC : Yes
Format settings, ReFrames : 14 frames
Codec ID : V_MPEG4/ISO/AVC
Duration : 1h 39mn
Bit rate : 2 270 Kbps
Width : 1 024 pixels
Height : 576 pixels
Display aspect ratio : 16:9
Frame rate : 23.976 fps
Color space : YUV
Chroma subsampling : 4:2:0
Bit depth : 8 bits
Scan type : Progressive
Bits/(Pixel*Frame) : 0.161
Stream size : 1.58 GiB (73%)
Title : BDRip by alexbalamyt
Writing library : x264 core 115 r1995 c1e60b9
Encoding settings : cabac=1 / ref=14 / deblock=1:-2:-1 / analyse=0x3:0x133 / me=umh / subme=10 / psy=1 / psy_rd=1.00:0.12 / mixed_ref=1 / me_range=32 / chroma_me=1 / trellis=2 / 8x8dct=1 / cqm=0 / deadzone=21,11 / fast_pskip=0 / chroma_qp_offset=-6 / threads=12 / sliced_threads=0 / nr=0 / decimate=1 / interlaced=0 / bluray_compat=0 / constrained_intra=0 / bframes=12 / b_pyramid=2 / b_adapt=2 / b_bias=0 / direct=3 / weightb=1 / open_gop=0 / weightp=2 / keyint=250 / keyint_min=23 / scenecut=40 / intra_refresh=0 / rc_lookahead=80 / rc=2pass / mbtree=1 / bitrate=2270 / ratetol=1.0 / qcomp=0.70 / qpmin=0 / qpmax=69 / qpstep=4 / cplxblur=20.0 / qblur=0.5 / vbv_maxrate=50000 / vbv_bufsize=50000 / nal_hrd=none / ip_ratio=1.40 / aq=1:1.00
Language : English

Audio #1
ID : 2
Format : AC-3
Format/Info : Audio Coding 3
Mode extension : CM (complete main)
Codec ID : A_AC3
Duration : 1h 39mn
Bit rate mode : Constant
Bit rate : 384 Kbps
Channel(s) : 6 channels
Channel positions : Front: L C R, Side: L R, LFE
Sampling rate : 48.0 KHz
Bit depth : 16 bits
Compression mode : Lossy
Stream size : 274 MiB (12%)
Title : Дубляж
Language : Russian

Audio #2
ID : 3
Format : AC-3
Format/Info : Audio Coding 3
Mode extension : CM (complete main)
Codec ID : A_AC3
Duration : 1h 39mn
Bit rate mode : Constant
Bit rate : 384 Kbps
Channel(s) : 6 channels
Channel positions : Front: L C R, Side: L R, LFE
Sampling rate : 48.0 KHz
Bit depth : 16 bits
Compression mode : Lossy
Stream size : 27
1fd367f186ad6c30368c005e873c1d612faab73cЧудаки 3D (Расширенная версия) / Jackass 3 (Unrated) (Джефф Треймейн, комедия, 2010) [BDRip-AVC,Профессиональный (дублированный)+Оригинал] Чудаки 3D (Расширенная версия) / Jackass 3 (Unrated) (Джефф Треймейн, комедия, 2010) [BDRip-AVC,Профессиональный (дублированный)+Оригинал] " />

Аплоадер: Админ, дата: 2-09-2011, 21:03, торрент скачан: 359 раз

Понравилась раздача? Посмотрите эти:
  • Персонаж / Stranger Than Fiction (Марк Форстер, Комедия, драма, фантастика, ...
  • Бедная богатая девочка / Young Adult (Джейсон Райтман, драма, комедия, 2011 ...
  • Робин Гуд [Режиссёрская версия] / Robin Hood [Directors Cut] (Ридли Скотт / ...
  • Сутенер / Le mac (Паскаль Бюрдо / Pascal Bourdiaux, комедия, криминал, 2010 ...
  • Мальчики-налетчики / Takers (Джон Льюсенхоп, боевик, криминал, 2010) [BDRip ...
  • Чудаки 3D [Театральная версия] / Jackass 3D [Theatrical Cut] (Джефф Треймей ...
  • [3D] Чудаки в 3Д / Jackass 3D [(Джефф Треймейн / Jeff Tremaine) комедия, до ...
  • Чудаки 3D / Jackass 3D (Джефф Треймейн, комедия, документальный, 2010) [BDR ...
  • Мачо и ботан / 21 Jump Street (Фил Лорд, Крис Миллер, боевик, комедия, 2012 ...
  • Mylene Farmer / Du Temps [2011, Pop, HDTVRip]
  • Чудаки 3D / Jackass 3D (Джефф Треймейн, комедия, документальный, 2010) [HDR ...
  • Чудаки 3D / Jackass 3D (Джефф Треймейн, комедия, документальный, 2010) [HDR ...
  • Чудаки 3D / Jackass 3D (Джефф Треймейн, комедия, документальный, 2010) [BDR ...
  • Чудаки 3D / Jackass 3D (Джефф Треймейн, комедия, документальный, 2010) [BDR ...
  • Чудаки 3.5 / Jackass 3.5 (Джефф Треймейн, комедия, документальный, 2011) [D ...
  • Чудаки 3.5 / Jackass 3.5 (Джефф Треймейн, комедия, документальный, 2011) [3 ...
  • Чудаки 3.5 / Jackass 3.5 (Джефф Треймейн, комедия, документальный, 2011) [H ...
  • Чудаки 3D [2D] / Jackass 3D (Джефф Треймейн, документальный, комедия, 2010) ...
  • Чудаки 3.5 / Jackass 3.5 [Unrated] (Джефф Треймейн, комедия, 2011) [HDRip, ...
  • [3D] Чудаки 3D / Jackass 3D (Джефф Треймейн, документальный, комедия, 2010г ...
  • Информация
    Посетители, находящиеся в группе Гости, не могут оставлять комментарии к данной публикации.