вход на сайт

Имя пользователя :
Пароль :

Восстановление пароля Регистрация
Репли-Кейт / Repli-Kate (Фрэнк Лонго, фантастика, комедия, 2002) [DVDRip, Профессиональный (многоголосый, закадровый)Екатеринбург-Арт]
Рейтинг:
(голосов: 1)



[img]{THEME}/images/logopost.png[/img]



Репли-Кейт / Repli-Kate

Год выпуска: 2002
Страна: США, Германия
Производство: Silver Nitrate Pictures
Жанр: фантастика, комедия

Режиссёр: Фрэнк Лонго
В ролях: Мелисса Гринспэн, Юджин Леви, Эли Лэндри, Десмонд Эскью, Райан Алосио, Керт Фуллер, Джеймс Родэй, Тодд Роберт Андерсон

Перевод: Профессиональный (многоголосый, закадровый)Екатеринбург-Арт
Субтитры: Отсутствуют

Описание:
Юный генетик Макс Флемминг создал первую в мире машину для клонирования. Когда он случайно клонирует девушку своей мечты, он сталкивается с самыми неожиданными неприятностями, связанными с тем, что идеальные привычки женщины в его понимании должны быть мужскими.
Дополнительно:
Релиз от :
Рейтинг MPAA: ▼
Рейтинг R - Лицам до 17 лет обязательно присутствие взрослого



MediaInfo ▼Text
Общее
Полное имя :F:TorrentTempRepli-Keit.2002.DVDRip.744.avi
Формат :AVI
Размер :744 MiB
Продолжительность :01:31:27.840
Общий поток :1 138 Kbps
Программа кодирования :VirtualDubMod 1.5.10.2 (build 2540/release)
Библиотека кодирования :VirtualDubMod build 2540/release

Видео
Идентификатор :0
Формат :MPEG-4 Visual
Профиль формата :Advanced [email protected]
Параметр BVOP формата :1
Параметр Qpel формата :No
Параметр GMC формата :0
Параметр Matrix формата :Custom
Идентификатор кодека :XVID
Продолжительность :1h 31mn 27s 840ms
Битрейт :1 000 Kbps
Ширина :656 pixels
Высота :368 pixels
Соотношение сторон :1.783
Частота кадров :25.000 fps
Глубина цвета :8 bits
Подвыборка цветности :4:2:0
Цветовое пространство :YUV
Тип развертки :Progressive
Бит/(Пиксели*Кадры) :0.166
Размер потока :654 MiB (88%)
Библиотека кодирования :XviD0050

Аудио #1
Идентификатор :1
Формат :MPEG Audio
Идентификатор кодека :55
Продолжительность :01:31:27.840
Вид битрейта :Constant
Битрейт :128 Kbps
Канал(ы) :2 channels
Частота :48.0 KHz
Метод сжатия :Lossy
Размер потока :83.7 MiB (11%)Тех. данные:
Качество
948774bb8e9e972b6c082d50ceba31048fa1b1f7Репли-Кейт / Repli-Kate (Фрэнк Лонго, фантастика, комедия, 2002) [DVDRip, Профессиональный (многоголосый, закадровый)Екатеринбург-Арт] Репли-Кейт / Repli-Kate (Фрэнк Лонго, фантастика, комедия, 2002) [DVDRip, Профессиональный (многоголосый, закадровый)Екатеринбург-Арт] " />

Аплоадер: Админ, дата: 11-08-2011, 19:33, торрент скачан: 359 раз

Понравилась раздача? Посмотрите эти:
  • Однажды на матрасе / Once Upon a Mattress (Кэтлин Маршалл, мюзикл, мелодрам ...
  • Американский пирог: Переполох в общаге / American Pie Presents Beta House ...
  • Блинки: Плохой робот / BlinkyTM (Рори Робинсон, короткометражка, ужасы, фан ...
  • Странный груз / Strange Cargo (Фрэнк Борзеги, драма, мелодрама, 1940) [DVDR ...
  • Подмена / Switch (Блейк Эдвардс, фэнтези, комедия, криминал, 1991) [DVDRip, ...
  • Сердце и души / Heart and Souls (Рон Андервуд, фэнтези, драма, мелодрама, к ...
  • Саботаж / Sabotage (Альфред Хичкок, триллер, детектив, 1936) [DVDRip, Профе ...
  • Таинственный остров / Остров приключений / Mysterious Island (Сай Эндфилд, ...
  • Вальсирующие / Les valseuses (Бертран Блие, драма, комедия, криминал, 1966) ...
  • Дуэль / Duel (Стивен Спилберг, триллер, детектив, 1971) [DVDRip, Профессион ...
  • Неприятности с Гарри / The Trouble with Harry (Альфред Хичкок, комедия, три ...
  • А как же Боб? / What About Bob? (Фрэнк Оз, комедия, 1991) [DVDRip, Професси ...
  • Афера / The Sting (Джордж Рой Хилл, комедия, криминал, 1973) [DVDRip, Профе ...
  • Консьерж / For Love or Money (Барри Зонненфельд, Мелодрама, комедия, 1993) ...
  • Любовь и смерть / Love and Death (Вуди Аллен, комедия, военный, 1975) [DVDR ...
  • Квадрофения / Quadrophenia (Фрэнк Роддэм, драма, криминал, музыка, 1979) [H ...
  • Конвейер / Blue Collar (Пол Шредер, драма, криминал, 1977) [DVDRip, Професс ...
  • Отец невесты / Father of the Bride (Винсенте Миннелли, комедия, мелодрама, ...
  • Подержанные автомобили / Used Cars (Роберт Земекис, комедия, 1980) [DVDRip, ...
  • Войны Пентагона / The Pentagon Wars (Ричард Бенджамин, Комедия, военный, 19 ...
  • Суперполицейский / Poliziotto superpiu (Серджио Корбуччи, фантастика, фэнте ...
  • Фантастическое путешествие / Fantastic Voyage (Ричард Флайшер, фантастика, ...
  • Повышение / The Promotion (Стив Конрад, Комедия, 2008) [DVDRip, Профессиона ...
  • Улыбки летней ночи / Sommarnattens leende (Ингмар Бергман, мелодрама, комед ...
  • Эпоха радио / Radio Days (Вуди Аллен, комедия, семейный, 1987) [DVDRip, Про ...
  • Информация
    Посетители, находящиеся в группе Гости, не могут оставлять комментарии к данной публикации.