вход на сайт

Имя пользователя :
Пароль :

Восстановление пароля Регистрация
Ужин с придурками / Dinner for Schmucks (Джей Роуч, комедия, 2010) [HDRip - AVC, Дублированный] by Torrent Club
Рейтинг:
(голосов: 1)



[img]{THEME}/images/logopost.png[/img]



Ужин с придурками / Dinner for Schmucks

Слоган «This Summer, B.Y.O. Schmuck.»

Год выпуска: 2010
Страна: США
Производство: DreamWorks SKG, Everyman Pictures, Paramount Pictures
Жанр: Комедия

Режиссёр: Джей Роуч
В ролях: Стив Карелл, Пол Радд, Зак Галифианакис, Джемейн Клемент, Стефани Зостак, Люси Панч, Брюс Гринвуд, Дэвид Уоллиамс, Рон Ливингстон, Ларри Уилмор

Перевод: Дублированный
Субтитры: отсутствуют

Описание:
Простой служащий фирмы Тим получил своё первое приглашение на «ужин для придурков». Это ежемесячное мероприятие устраивает его босс, и тот, кто покажет себя самым большим идиотом, может рассчитывать на некоторые бонусы в будущем.

Невеста Тима — Джулии — находит всё это ужасным, и Тим соглашается пропустить ужин, но случайно знакомится с Барри — сотрудником налоговой службы, который в свободное время конструирует диорамы из чучел мышей. Тим приглашает с собой на ужин Барри, который становится причиной злоключений Тима. У него едва не срывается важная сделка, его бывшая подруга возвращается в его жизнь, а Джулии попадает в объятия другого…



Доп. информация:

Релиз от :
Автор рипа : Simple_guy
Премьера: ▼премьера (мир) 30 июля 2010
релиз на DVD 10 мая 2011, «Юниверсал Пикчерс Рус»

Тех. данные:
Качество: HDRip - AVC
Продолжительность: 01:54:03 час.

Формат: MKV
Видео кодек: x264
Аудио кодек: AС3
Видео: 1024x568 (16:9), 23.976 fps, Advanced Video Codec ~2413 kbps avg, 0.173 bit/pixel
Аудио: 48 kHz, AC3 Dolby Digital, 3/2 (L,C,R,l,r) + LFE ch, ~384.00 kbps avg
MediaInfo: ▼TextОбщее
Уникальный идентификатор : 228804784595538282879569806539112337469 (0xAC2232D7EB40E846858E06D9D118503D)
Полное имя : C:UsersШапагатDownloadsUzhin.s.pridurkami.2010.D.HDRip-AVC.by.t.c.mkv
Формат : Matroska
Размер файла : 2,23 Гбайт
Продолжительность : 1 ч. 54 м.
Общий поток : 2799 Кбит/сек
Дата кодирования : UTC 2011-06-11 09:28:55
Программа кодирования : mkvmerge v4.5.0 (Speed of Light) сборка от Feb 15 2011 12:50:20
Библиотека кодирования : libebml v1.2.0 + libmatroska v1.1.0

Видео
Идентификатор : 1
Формат : AVC
Формат/Информация : Advanced Video Codec
Профиль формата : [email protected]
Параметр CABAC формата : Да
Параметр ReFrames формата : 4 кадры
Параметры GOP формата : M=4, N=31
Идентификатор кодека : V_MPEG4/ISO/AVC
Продолжительность : 1 ч. 54 м.
Битрейт : 2413 Кбит/сек
Ширина : 1024 пикс.
Высота : 568 пикс.
Соотношение сторон : 16:9
Частота кадров : 23,976 кадр/сек
Цветовое пространство : YUV
Подвыборка цветности : 4:2:0
Битовая глубина : 8 бит
Тип развёртки : Прогрессивная
Бит/(Пиксели*Кадры) : 0.173
Размер потока : 1,88 Гбайт (84%)
Библиотека кодирования : x264 core 114 r1913 5fd3dce
Настройки программы : cabac=1 / ref=3 / deblock=1:0:0 / analyse=0x3:0x113 / me=hex / subme=7 / psy=1 / psy_rd=1.00:0.00 / mixed_ref=1 / me_range=16 / chroma_me=1 / trellis=1 / 8x8dct=1 / cqm=0 / deadzone=21,11 / fast_pskip=1 / chroma_qp_offset=-2 / threads=3 / sliced_threads=0 / nr=0 / decimate=1 / interlaced=0 / constrained_intra=0 / bframes=3 / b_pyramid=2 / b_adapt=1 / b_bias=0 / direct=3 / weightb=1 / open_gop=0 / weightp=2 / keyint=250 / keyint_min=23 / scenecut=40 / intra_refresh=0 / rc_lookahead=40 / rc=2pass / mbtree=1 / bitrate=2413 / ratetol=1.0 / qcomp=0.60 / qpmin=0 / qpmax=69 / qpstep=4 / cplxblur=20.0 / qblur=0.5 / ip_ratio=1.40 / aq=1:1.00

Аудио
Идентификатор : 2
Формат : AC-3
Формат/Информация : Audio Coding 3
Расширение режима : CM (complete main)
Идентификатор кодека : A_AC3
Продолжительность : 1 ч. 54 м.
Вид битрейта : Постоянный
Битрейт : 384 Кбит/сек
Канал(ы) : 6 канала(ов)
Расположение каналов : Front: L C R, Side: L R, LFE
Частота : 48,0 КГц
Битовая глубина : 16 бит
Метод сжатия : С потерями
Размер потока : 313 Мбайт (14%)



Раздача группы: Наши раздачи
Набор в группу




78aedd586d88f4f85c076c40b4d3cc71483edab7Ужин с придурками / Dinner for Schmucks (Джей Роуч, комедия, 2010) [HDRip - AVC, Дублированный] by Torrent Club Ужин с придурками / Dinner for Schmucks (Джей Роуч, комедия, 2010) [HDRip - AVC, Дублированный] by Torrent Club " />

Аплоадер: Админ, дата: 11-06-2011, 15:39, торрент скачан: 359 раз

Понравилась раздача? Посмотрите эти:
  • Ужин с придурками / Dinner for Schmucks (Джей Роуч, комедия, 2010) [HDRip-A ...
  • Идеальный голос / Pitch Perfect (Джейсон Мур, Мелодрама, комедия, музыка, 2 ...
  • Переполох на районе / Les Kaira (Франк Гастамбиде, комедия, 2012) [HDRip-AV ...
  • Чемпионат Англии 2012-2013 / 25-й тур / Обзор / Суббота / BBC Sport [2013 г ...
  • Ужин с придурками / Dinner for Schmucks (Джей Роуч, комедия, 2010) [HDRip, ...
  • Эра драконов / Age of the Dragons (Райан Литтл, фантастика, фэнтези, боевик ...
  • Измученный / The Tortured (Роберт Либерман, ужасы, триллер, драма, 2010) [H ...
  • Короли улиц 2 / Street Kings 2: Motor City (Крис Фишер, Боевик, драма, крим ...
  • Немыслимое / Unthinkable (Грегор Джордан, триллер, драма, 2009) [HDRip - AV ...
  • Белый слон / Elephant White (Прачья Пинкаю, боевик, триллер, криминал, 2011 ...
  • Двенадцать / Twelve (Джоэл Шумахер, триллер, драма, 2010) [HDRip-AVC, Профе ...
  • Путь воина / The Warriors Way (Снгму Ли, фэнтези, боевик, вестерн, 2010) [H ...
  • Путь воина / The Warriors Way (Снгму Ли, фэнтези, боевик, вестерн, 2010) [H ...
  • Ужин с придурками / Dinner for Schmucks (Джей Роуч, комедия, 2010) [HDRip - ...
  • Человек с Земли / The Man from Earth (Ричард Шенкман, фантастика, драма, 20 ...
  • Обещать - не значит жениться / Hes Just Not That Into You (Кен Куопис, драм ...
  • Девушка по вызову / The Girlfriend Experience (Стивен Содерберг, Драма, 200 ...
  • Страшно красив / Beastly (Даниел Барнз, фэнтези, драма, мелодрама, 2011) [H ...
  • Главное - не бояться! / A Little Bit of Heaven (Николь Кэссел / Nicole Kass ...
  • Спиди Гонщик / Speed Racer (Энди Вачовски / Andy Wachowski, Лана Вачовски / ...
  • Дьявол / Devil (Джон Эрик Даудл / John Erick Dowdle,ужасы, триллер, детекти ...
  • Переростки / The Inbetweeners (Бен Палмер, Комедия, 2011) [BDRip-AVC, Профе ...
  • Проект X: Дорвались / Project X (Нима Нуризаде, комедия, 2012) [BDRip - AVC ...
  • Помогите Стать Отцом / Not Suitable For Children (Питер Темплмен, Мелодрама ...
  • Ужин с придурками / Dinner for Schmucks (Джей Роуч, комедия, 2010) [HDRip, ...
  • Информация
    Посетители, находящиеся в группе Гости, не могут оставлять комментарии к данной публикации.