вход на сайт

Имя пользователя :
Пароль :

Восстановление пароля Регистрация
Астерикс и Обеликс в Британии / Asterix et Obelix: Au service de Sa Majeste (Лоран Тирар, Комедия, приключения, семейный, 2012) [HDRip, Профессиональный (полное дублирование)]
Рейтинг:
(голосов: 1)



[img]{THEME}/images/logopost.png[/img]



• Астерикс и Обеликс в Британии / Asterix et Obelix: Au service de Sa Majeste •
-

Год выпуска: 2012
Страна: Венгрия, Испания, Италия, Франция
Производство: France 2 Cinema, Bruxelles Capitale
Жанр: Комедия, приключения, семейный

Режиссёр: Лоран Тирар
В ролях: Жерар Депардье, Эдуард Баэр, Гийом Гальенн, Венсан Лакост, Валери Лемерсье, Фабрис Лукини, Катрин Денёв, Шарлотта Лебон, Боли Ланнерс, Дэни Бун

Перевод: Профессиональный (полное дублирование)
Субтитры: Нет

Описание: Пятидесятый год до нашей эры. Юлий Цезарь рвется к новым завоеваниям. Во главе своих прославленных легионов он собирается захватить остров, который находится на самом краю света — таинственную страну, именуемую Британией. Войско Цезаря одерживает быструю и безоговорочную победу. Ну… почти безоговорочную: одна крошечная деревушка продолжает яростно обороняться, однако силы на исходе, и королева бриттов Корделия отправляет офицера Красовакса за подмогой в Галлию. Когда к галлам приезжает Красовакс, те снабжают его бочонком своего знаменитого волшебного зелья, а Астерикс и Обеликс отправляются вместе с ним в Британию. Гадорикса они тоже берут с собой, ведь путешествие — отличный способ пополнить образование молодого человека. Но, к сожалению, все идет не так, как задумывалось…Дата премьеры (мир): 6 октября 2012
Дата премьеры (РФ): 25 октября 2012, «Централ Партнершип»

Качество: HDRip |Сэмпл
Продолжительность: 01:50:15


Формат: AVI
Видео кодек: XviD
Аудио кодек: MP3
Видео: 688x288 (2.35:1), 23.976 fps, XviD build 50 ~808 kbps avg, 0.17 bit/pixel
Аудио: 48 kHz, MPEG Layer 3, 2 ch, ~128.00 kbps avg


"Mediainfo:" ▼TextGeneral
Format : AVI
Format/Info : Audio Video Interleave
File size : 745 MiB
Duration : 1h 50mn
Overall bit rate : 945 Kbps
Writing application : VirtualDubMod 1.5.10.2 (build 2540/release)
Writing library : VirtualDubMod build 2540/release
Video #0
ID : 0
Format : MPEG-4 Visual
Format profile : Advanced [email protected]
Format settings, BVOP : Yes
Format settings, QPel : No
Format settings, GMC : No warppoints
Format settings, Matrix : Custom
Codec ID : XVID
Codec ID/Hint : XviD
Duration : 1h 50mn
Bit rate : 808 Kbps
Width : 688 pixels
Height : 288 pixels
Display aspect ratio : 2.35:1
Frame rate : 23.976 fps
Color space : YUV
Chroma subsampling : 4:2:0
Bit depth : 8 bits
Scan type : Progressive
Compression mode : Lossy
Bits/(Pixel*Frame) : 0.170
Stream size : 637 MiB (85%)
Writing library : XviD 1.2.1 (UTC 2008-12-04)
Audio #1
ID : 1
Format : MPEG Audio
Format version : Version 1
Format profile : Layer 3
Codec ID : 55
Codec ID/Hint : MP3
Duration : 1h 50mn
Bit rate mode : Constant
Bit rate : 128 Kbps
Channel(s) : 2 channels
Sampling rate : 48.0 KHz
Compression mode : Lossy
Stream size : 101 MiB (14%)
Alignment : Aligned on interleaves
Interleave, duration : 42 ms (1.00 video frame)
Interleave, preload duration : 504 ms
Writing library : LAME3.97
&n
67e3a4f014a12b7c454259e281d4b9f1a77db961Астерикс и Обеликс в Британии / Asterix et Obelix: Au service de Sa Majeste (Лоран Тирар, Комедия, приключения, семейный, 2012) [HDRip, Профессиональный (полное дублирование)] Астерикс и Обеликс в Британии / Asterix et Obelix: Au service de Sa Majeste (Лоран Тирар, Комедия, приключения, семейный, 2012) [HDRip, Профессиональный (полное дублирование)] " />

Аплоадер: Админ, дата: 19-02-2013, 04:40, торрент скачан: 359 раз

Понравилась раздача? Посмотрите эти:
  • Любовь на кончиках пальцев / Populaire (Режис Ройнсар, Мелодрама, комедия, ...
  • Астерикс и Обеликс в Британии / Asterix et Obelix: Au service de Sa Majeste ...
  • Астерикс и Обеликс в Британии / Astérix et Obélix: Au service de Sa Majesté ...
  • Астерикс и Обеликс в Британии / Asterix et Obelix: Au service de Sa Majeste ...
  • Скуби-Ду! Маска Синего Сокола / Scooby-Doo! Mask Of The Blue Falcon (Оливье ...
  • Астерикс и Обеликс в Британии / Asterix et Obelix: Au service de Sa Majeste ...
  • Астерикс и Обеликс в Британии / Astérix et Obélix: Au service de Sa Majesté ...
  • Астерикс и Обеликс в Британии / Asterix et Obelix: Au service de Sa Majeste ...
  • Астерикс и Обеликс в Британии / Asterix et Obelix: Au service de Sa Majeste ...
  • [3D] Астерикс и Обеликс в Британии / Asterix et Obelix: Au service de Sa Ma ...
  • [3D] Астерикс и Обеликс в Британии / Astérix et Obélix: Au service de Sa Ma ...
  • Астерикс и Обеликс в Британии / Asterix et Obelix: Au service de Sa Majeste ...
  • Астерикс и Обеликс в Британии / Astérix et Obélix: Au service de Sa Majesté ...
  • [3D] Астерикс и Обеликс в Британии 3D трейлер / Asterix et Obelix: Au servi ...
  • Чемпионат Европы 2012 / Группа D / 1-й тур / Украина - Швеция / Спорт 1 [11 ...
  • Олимпиада 2012 / Мужчины / Группа D / 1-й тур / Испания — Япония / НТВ+ [Фу ...
  • Tank Feat. T.I. & Kris Stephens / Compliments [2012, RnB,Hip-Hop, HDRip]
  • Маленький Николя / Le Petit Nicolas ( Лорен Тирар,комедия, семейный,2009 ) ...
  • Астерикс и Обеликс против Цезаря / Astérix et Obélix contre (Клод Зиди / Cl ...
  • Чемпионат Европы 2012 / Группа B / 1-й тур / Германия - Португалия / Спорт ...
  • Товарищеский матч 2012 / АмаЗулу (ЮАР) - Манчестер Юнайтед (Англия) / MU TV ...
  • Олимпиада 2012 / Женщины, Мужчины / Плавание / Квалификация / НТВ+ [30.07.2 ...
  • [Трейлер] Астерикс и Обеликс в Британии / Astérix et Obélix: Au Service de ...
  • Ничего, кроме правды / Nothing But the Truth (Род Лури, триллер, драма, 200 ...
  • Рука-убийца / Idle Hands (Родмен Флендер,ужасы, триллер, комедия, 1999) [HD ...
  • Информация
    Посетители, находящиеся в группе Гости, не могут оставлять комментарии к данной публикации.