вход на сайт

Имя пользователя :
Пароль :

Восстановление пароля Регистрация
Маленький гигант большого секса (Николай Досталь, Комедия, 1992) [DVDRip, Не требуется]
Рейтинг:
(голосов: 1)



[img]{THEME}/images/logopost.png[/img]



Маленький гигант большого секса

Год выпуска: 1992
Страна: СССР
Производство: Круг, Мосфильм
Жанр: Комедия

Режиссёр: Николай Досталь
В ролях: Геннадий Хазанов, Зоя Буряк, Татьяна Чепикова, Оксана Калиберда, Николай Карнаухов, Владимир Кашпур, Александр Берда, Валерий Хромушкин, Ирэна Кокрятская, Галина Кулагина

Перевод: Не требуется
Субтитры: Отсутствуют

Описание:
По мотивам повести Ф. Искандера «О, Марат!». Герой фильма живет в курортном городе на берегу Черного моря и работает фотографом на пляже. Ни одна женщина не может устоять перед его неотразимым обаянием. Но все-таки однажды он потерпел фиаско…


Дополнительно:
MediaInfo ▼Text
Общее
Полное имя :K:Маленький гигант большого сексаМаленький гигант большого секса.avi
Формат :AVI
Размер :1.46 GiB
Продолжительность :01:18:38.680
Общий поток :2 656 Kbps
Программа кодирования :VirtualDubModRus 1.5.10.2 (build 2540/release)
Библиотека кодирования :VirtualDubMod build 2540/release

Видео
Идентификатор :0
Формат :MPEG-4 Visual
Параметр BVOP формата :1
Параметр Qpel формата :No
Параметр GMC формата :0
Параметр Matrix формата :Default (H.263)
Идентификатор кодека :DX50
Продолжительность :1h 18mn 38s 680ms
Битрейт :2 199 Kbps
Ширина :704 pixels
Высота :512 pixels
Соотношение сторон :1.375
Частота кадров :25.000 fps
Глубина цвета :8 bits
Подвыборка цветности :4:2:0
Цветовое пространство :YUV
Тип развертки :Progressive
Бит/(Пиксели*Кадры) :0.244
Размер потока :1.21 GiB (83%)
Библиотека кодирования :DivX503b2816p

Аудио #1
Идентификатор :1
Формат :AC-3
Формат/Информация :Audio Coding 3
Идентификатор кодека :2000
Продолжительность :01:18:38.528
Вид битрейта :Constant
Битрейт :448 Kbps
Канал(ы) :6 channels
Расположение каналов :Front: L C R, Side: L R, LFE
Частота :48.0 KHz
Битовая глубина :16 bits
Метод сжатия :Lossy
Размер потока :252 MiB (17%)Тех. данные:
Качес
7919805c62e47d3f15223b7f273c89d61cec7452Маленький гигант большого секса (Николай Досталь, Комедия, 1992) [DVDRip, Не требуется] Маленький гигант большого секса (Николай Досталь, Комедия, 1992) [DVDRip, Не требуется] " />

Аплоадер: Админ, дата: 14-02-2013, 19:52, торрент скачан: 359 раз

Понравилась раздача? Посмотрите эти:
  • Маленький гигант большого секса (Николай Досталь, Г. Хазанов, комедия, 1992 ...
  • На подмостках сцены (Константин Юдин, драма, комедия, 1956) [DVDRip, Не тре ...
  • Журавушка (Николай Москаленко, драма, мелодрама, 1968) [DVDRip, Не требуетс ...
  • Бой под Соколом (Александр Разумный, военный, 1942) [DVDRip, Не требуется]
  • Аленка (Борис Барнет, комедия, 1961) [DVDRip, Не требуется]
  • Шел четвертый год войны... (Георгий Николаенко, военный, 1983) [DVDRip, Не ...
  • Старшина (Николай Кошелев, драма, 1979) [DVDRip, Не требуется]
  • Путевка в Жизнь (Николай Экк, драма, 1931) [DVDRip, Не требуется]
  • Конец "Сатурна" (Виллен Азаров, Мосфильм, 1967) [DVDRip, Не требуется]
  • Завтрак на траве (Николай Александрович, детский, комедия, 1979) [DVDRip, Н ...
  • Миллионы Ферфакса (Николай Ильинский, криминал, детектив, 1980) [DVDRip, Не ...
  • Левша (Сергей Овчаров, драма, комедия, 1986) [DVDRip, Не требуется]
  • Капитанская дочка (Владимир Каплуновский, драма, 1958) [DVDRip, Не требуетс ...
  • Мы с вами где-то встречались (Николай Досталь, Андрей Тутышкин, комедия, 19 ...
  • Солёный пёс (Николай Кошелев, драма, комедия, 1973) [DVDRip, Не требуется]
  • Печники (Виктор Храмов, драма, 1982) [DVDRip, Не требуется]
  • Небывальщина (Сергей Овчаров, комедия, 1983) [DVDRip, Не требуется]
  • Бабушки надвое сказали (Валерий Харченко, Юрий Клебанов, комедия, 1979) [DV ...
  • Майская ночь, или Утопленница (Александр Роу, фэнтези, комедия, 1952) [DVDR ...
  • Слушать в отсеках (2 части из 2) (Николай Засеев-Руденко, приключения, 1985 ...
  • Светлая личность (Александр Павловский, мюзикл, комедия, 1989) [DVDRip, Не ...
  • Уходя - уходи (Виктор Трегубович, комедия, 1978) [DVDRip, Не требуется]
  • Прощайте, фараоны! (Давид Черкасский, Вячеслав Винник, комедия, 1974) [DVDR ...
  • Кутузов (Владимир Петров, драма, 1943) [DVDRip, Не требуется]
  • Добряки (Карен Шахназаров, комедия, 1979) [DVDRip, Не требуется]
  • Информация
    Посетители, находящиеся в группе Гости, не могут оставлять комментарии к данной публикации.