вход на сайт

Имя пользователя :
Пароль :

Восстановление пароля Регистрация
Костолом / Mean Machine (Барри Сколник, Драма, комедия, спорт, 2001) [DVDRip, Профессональный (многоголосый, закадровый) + Оригинал (английский)]
Рейтинг:
(голосов: 1)



[img]{THEME}/images/logopost.png[/img]



Костолом / Mean Machine

Год выпуска: 2001
Страна: Великобритания, США
Производство: Brad Grey Pictures, Paramount Pictures, Ruddy Morgan Productions, SKA Films
Жанр: Драма, комедия, спорт

Режиссёр: Барри Сколник
В ролях: Винни Джонс, Джейсон Стэйтем, Джейсон Флеминг, Дэвид Келли, Дэвид Хеммингс, Ральф Браун, Вэс Блэквуд, Робби Ги, Джофф Белл, Джон Форджэм

Перевод: Профессональный (многоголосый, закадровый) + Оригинал (английский)
Субтитры: Oтсутствуют

Описание: У Дэнни Михэна есть все: деньги, слава, дорогие машины. Он — капитан английской национальной команды по футболу. Но однажды идиллия нарушается; Дэнни получает трехлетний тюремный срок за нападение на офицера полиции в состоянии алкогольного опьянения.

Начальник тюрьмы, в которой оказался Дэнни, вложил немало собственных денег в создание футбольной команды и решил заполучить маститого футболиста в качестве тренера для своей команды. Его мечта — выиграть «тюремную лигу».

Но Дэнни создает команду из заключенных, которая должна сыграть первый матч со своими тюремщиками. Начальник тюрьмы не возражает; он не верит, что заключенные могут выиграть.



Качество: DVDRip | Сэмпл
Продолжительность: 01:39:10 час.

Формат: AVI
Видео кодек: XviD
Аудио кодек: AC3
Видео: 704x400 (16:9), 23.976 fps, XviD ~2 179 kbps avg, 0.323 bit/pixel
Аудио #1: 48 kHz, AC3 Dolby Digital, 3/2 (L,C,R,l,r) + LFE ch, ~384.00 kbps avg MVO
Аудио #2: 48 kHz, AC3 Dolby Digital, 3/2 (L,C,R,l,r) + LFE ch, ~384.00 kbps avg ENG

Дата премьеры (мир): 26 декабря 2001
Дата премьеры (РФ): 27 июня 2002, «Ист-Вест»

"MediaInfo" ▼Format : AVI
Format/Info : Audio Video Interleave
Format profile : OpenDML
File size : 2.05 GiB
Duration : 1h 39mn
Overall bit rate : 2 965 Kbps
Movie name : Mean Machine (2001) DVDRip
Director : danis92 (DVD5 Custom)
Writing application : VirtualDubMod 1.5.10.2 (build 2542/release)
Copyright : HQRips (hqrips.do.am)
Comment : R.G. HQRips

Video
ID : 0
Format : MPEG-4 Visual
Format profile : Advanced [email protected]
Format settings, BVOP : 1
Format settings, QPel : No
Format settings, GMC : No warppoints
Format settings, Matrix : Custom
Codec ID : XVID
Codec ID/Hint : XviD
Duration : 1h 39mn
Bit rate : 2 179 Kbps
Width : 704 pixels
Height : 400 pixels
Display aspect ratio : 3:2
Original display aspect ratio : 16:9
Frame rate : 23.976 fps
Color space : YUV
Chroma subsampling : 4:2:0
Bit depth : 8 bits
Scan type : Progressive
Compression mode : Lossy
Bits/(Pixel*Frame) : 0.323
Stream size : 1.51 GiB (73%)
Writing library : XviD 1.2.1 (UTC 2008-12-04)

Audio #1
ID : 1
Format : AC-3
Format/Info : Audio Coding 3
Mode extension : CM (complete main)
Format settings, Endianness : Big
Codec ID : 2000
Duration : 1h 39mn
Bit rate mode : Constant
Bit rate : 384 Kbps
Channel(s) : 6 channels
Channel positions : Front: L C R, Side: L R, LFE
Sampling rate : 48.0 KHz
Bit depth : 16 bits
Compression mode : Lossy
Stream size : 272 MiB (13%)
Alignment : Split accross interleaves
Interleave, duration : 42 ms (1.00 video frame)
Interleave, preload duration : 500 ms

Audio #2
ID : 2
Format : AC-3
Format/Info : Audio Coding 3
Mode extension : CM (complete main)
Format settings, Endianness : Big
Codec ID : 2000
Duration : 1h 39mn
Bit rate mode : Constant
Bit rate : 384 Kbps
Channel(s) : 6 channels
Channel positions : Front: L C R, Side: L R, LFE
Sampling rate : 48.0 KHz
Bit depth : 16 bits
Compression mode : Lossy
Stream size : 272 MiB (13%)
Alignment : Split accross interleaves
Interleave, duration : 42 ms (1.00 video frame)
Interleave, preload duration : 500 ms




5e04e5bb5367530cb5235f76925098cedd91e740Костолом / Mean Machine (Барри Сколник, Драма, комедия, спорт, 2001) [DVDRip, Профессональный (многоголосый, закадровый) + Оригинал (английский)] Костолом / Mean Machine (Барри Сколник, Драма, комедия, спорт, 2001) [DVDRip, Профессональный (многоголосый, закадровый) + Оригинал (английский)] " />

Аплоадер: Админ, дата: 14-04-2013, 14:29, торрент скачан: 359 раз

Понравилась раздача? Посмотрите эти:
  • Орудие смерти / A-i-deul... (Ли Гю Ман, Триллер, криминал, 2011) [DVDRip, П ...
  • Верное дельце / Une pure affaire (Александр Коффре, Боевик, Комедия, Кримин ...
  • Безумный Макс 3: Под куполом грома / Mad Max Beyond Thunderdome (Джордж Мил ...
  • [EN] 42 / 42 (Брайан Хелгеленд, Драма, биография, спорт, 2013) [BDRip, Ориг ...
  • Мужество / Wymyk (Грег Зглински, драма, 2011) [DVDRip, Любительский (одного ...
  • 42 / 42 (Брайан Хелгеленд, драма, биография, спорт, 2013) [BDRip, Профессио ...
  • Неудержимый / Bullet to the Head (Уолтер Хилл, Боевик, триллер, криминал, 2 ...
  • Поймай толстуху, если сможешь [Театральная версия] / Identity Thief [Theatr ...
  • Звук моего голоса / Sound of My Voice (Зал Батманглидж, триллер, драма, 201 ...
  • 23:59 / 23:59 (Гилберт Чан, Ужасы, 2011) [HDRip, Любительский (одноголосый ...
  • В хлам / Smashed (Джеймс Понсольдт, Драма, комедия, 2012) [HDRip, Профессио ...
  • Покорители Волн / Chasing Mavericks (Майкл Эптед, Кёртис Хэнсон, Драма, спо ...
  • Костолом (Злая машина) / Mean Machine (Барри Сколник / Barry Skolnick, коме ...
  • Костолом / Mean Machine (Барри Сколник, комедия, драма, спорт, 2001) [DVDRi ...
  • Костолом / Mean Machine (Барри Сколник, драма, комедия, спорт, 2001) [HDTVR ...
  • Тюремщик / Screwed (Рег Тревисс / Reg Traviss, Драма, 2011) [DVDRip , Люби ...
  • Плохая актриса / Bad Actress (Роберт Ли Кинг, комедия, 2011) [DVDRip, Профе ...
  • Доля ангелов / The Angels Share (Кен Лоуч, драма, комедия, 2012) [HDRip, Пр ...
  • Джефф, живущий дома / Jeff, Who Lives at Home (Джей Дюпласс, Марк Дюпласс, ...
  • Супер циклон / Super Cyclone (Лиз Адамс / Liz Adams, боевик, 2012) [HDRip, ...
  • Захват / Carjacked (Джон Бонито, триллер, 2011)[BDRip, Профессиональный (мн ...
  • Влюбленные (Валерий Бебко, Комедия, 2011) [DVDRip, Оригинал]
  • Супершторм в Сиэтле / Seattle Superstorm (Джейсон Бурк, фантастика, боевик ...
  • Девушки в опасности / Damsels in Distress (Уит Стиллман, драма, мелодрама, ...
  • Табу / Tabu (Мигель Гомеш, Драма, мелодрама, 2012) [DVDRip, Профессиональны ...
  • Информация
    Посетители, находящиеся в группе Гости, не могут оставлять комментарии к данной публикации.