вход на сайт

Имя пользователя :
Пароль :

Восстановление пароля Регистрация
Холостячки / Bachelorette (Лесли Хэдланд, комедия, мелодрама, 2012) [BDRip-AVC, Профессиональный (полное дублирование)]
Рейтинг:
(голосов: 1)



[img]{THEME}/images/logopost.png[/img]



Холостячки / Bachelorette
«Комедия о том, как плохие девочки получают всё»

Год выпуска: 2012
Страна: США
Производство:BCDF Pictures, Gary Sanchez Productions
Жанр: комедия, мелодрама

Режиссёр: Лесли Хэдланд
В ролях: Кирстен Данст, Айла Фишер, Лиззи Каплан, Джеймс Мэрсден, Кайл Борнхеймер, Ребел Уилсон, Адам Скотт, Хэйес МакАртур, Энди Раннеллс, Элла Рэй Пек

Перевод: Профессиональный (полное дублирование)
Субтитры: нет

Описание: Три симпатичные и острые на язык незамужние подруги приезжают на свадьбу бывшей одноклассницы-толстушки и… случайно портят впечатляющее своими размерами подвенечное платье невесты. А ведь завтра ей идти к алтарю! За одну ночь холостячкам предстоит проделать головокружительное путешествие по стрип-клубам, туалетным комнатам и мужским спальням во имя спасения свадьбы той, которую они терпеть не могут.



Качество: BDRip-AVC
Продолжительность: 01:27:03 час.

Формат: MKV
Видео кодек: H.264
Аудио кодек: AС3
Видео: 1024x432 (2,40:1), 24,000 fps, H.264 ~3088 kbps avg, 0.291 bit/pixel
Аудио: 48 kHz, Audio Coding 3, 6 ch, ~448.00 kbps avg

Дата премьеры (мир): 23 января 2012
Дата премьеры (РФ): 6 сентября 2012, «Top Film Distribution»

MediaInfo ▼Общее
Уникальный идентификатор : 198816906768060037827763849713037712280 (0x9592BE50BD9E18878A4804EB80919B98)
Полное имя : C:UsersveebruarDesktopФильмыHolostjachki.2012.BDRip_AVC.mkv
Формат : Matroska
Версия формата : Version 2
Размер файла : 2,15 Гбайт
Продолжительность : 1 ч. 27 м.
Общий поток : 3537 Кбит/сек
Дата кодирования : UTC 2013-02-06 20:46:43
Программа кодирования : mkvmerge v5.8.0 (No Sleep / Pillow) built on Sep 2 2012 15:37:04
Библиотека кодирования : libebml v1.2.3 + libmatroska v1.3.0

Видео
Идентификатор : 1
Формат : AVC
Формат/Информация : Advanced Video Codec
Профиль формата : [email protected]
Параметр CABAC формата : Да
Параметр ReFrames формата : 10 кадров
Идентификатор кодека : V_MPEG4/ISO/AVC
Продолжительность : 1 ч. 27 м.
Битрейт : 3088 Кбит/сек
Ширина : 1024 пикселя
Высота : 432 пикселя
Соотношение сторон : 2,40:1
Режим частоты кадров : Постоянный
Частота кадров : 24,000 кадра/сек
Цветовое пространство : YUV
Субдискретизация насыщенности : 4:2:0
Битовая глубина : 8 бит
Тип развёртки : Прогрессивная
Бит/(Пиксели*Кадры) : 0.291
Размер потока : 1,84 Гбайт (85%)
Библиотека кодирования : x264 core 125 r2208 d9d2288
Настройки программы : cabac=1 / ref=10 / deblock=1:-2:-1 / analyse=0x3:0x113 / me=umh / subme=10 / psy=1 / psy_rd=1.00:0.20 / mixed_ref=1 / me_range=24 / chroma_me=1 / trellis=2 / 8x8dct=1 / cqm=0 / deadzone=21,11 / fast_pskip=0 / chroma_qp_offset=-3 / threads=6 / lookahead_threads=1 / sliced_threads=0 / nr=0 / decimate=0 / interlaced=0 / bluray_compat=0 / constrained_intra=0 / bframes=10 / b_pyramid=2 / b_adapt=2 / b_bias=0 / direct=3 / weightb=1 / open_gop=0 / weightp=2 / keyint=250 / keyint_min=23 / scenecut=40 / intra_refresh=0 / rc_lookahead=60 / rc=2pass / mbtree=1 / bitrate=3088 / ratetol=1.0 / qcomp=0.60 / qpmin=0 / qpmax=51 / qpstep=4 / cplxblur=20.0 / qblur=0.5 / vbv_maxrate=62500 / vbv_bufsize=50000 / nal_hrd=none / ip_ratio=1.40 / aq=1:1.00
Default : Да
Forced : Нет

Аудио
Идентификатор : 2
Формат : AC-3
Формат/Информация : Audio Coding 3
Расширение режима : CM (complete main)
Параметр Endianness формата : Big
Идентификатор кодека : A_AC3
Продолжительность : 1 ч. 27 м.
Вид битрейта : Постоянный
Битрейт : 448 Кбит/сек
Каналы : 6 каналов
Расположение каналов : Front: L C R, Side: L R, LFE
Частота : 48,0 КГц
Битовая глубина : 16 бит
Метод сжатия : С потерями
Размер потока : 279 Мбайт (13%)
Default : Да
Forced : Нет


fbc1ba4b8780694a1b185701a2d30501058d502bХолостячки / Bachelorette (Лесли Хэдланд, комедия, мелодрама, 2012) [BDRip-AVC, Профессиональный (полное дублирование)] Холостячки / Bachelorette (Лесли Хэдланд, комедия, мелодрама, 2012) [BDRip-AVC, Профессиональный (полное дублирование)] " />

Аплоадер: Админ, дата: 3-05-2013, 13:04, торрент скачан: 359 раз

Понравилась раздача? Посмотрите эти:
  • Андроид / Android (App) (Бобо Боерманс, Tриллер, 2013) [BDRip-AVC, Професси ...
  • Холостячки / Bachelorette (Лесли Хэдланд, комедия, 2012) [HDRip-AVC, Профес ...
  • Холостячки / Bachelorette (Лесли Хэдланд, Комедия, 2012) [BDRip 720p, Профе ...
  • Холостячки / Bachelorette (Лесли Хэдланд, Комедия, 2012) [BDRip 1080p, Проф ...
  • Холостячки / Bachelorette (Лесли Хэдланд, комедия, мелодрама, 2012) [HDRip- ...
  • Ослепленный желаниями / Bedazzled (Харольд Рэмис, фэнтези, комедия, мелодра ...
  • Поймай толстуху, если сможешь / Identity Thief [Theatrical Cut] (Сет Гордон ...
  • Поймай толстуху, если сможешь [Театральная версия] / Identity Thief [Theatr ...
  • Больше, чем любовь / A Lot Like Love (Найджел Коул, Драма, мелодрама, комед ...
  • Даю год / I Give It a Year (Дэн Мазер, мелодрама, комедия, 2012) [BDRip-AVC ...
  • Идеальный голос / Pitch Perfect (Джейсон Мур, Мелодрама, комедия, музыка, 2 ...
  • Линкольн / Lincoln (Стивен Спилберг, драма, военный, биография, история, 20 ...
  • Холостячки / Bachelorette (Лесли Хэдланд, Комедия, мелодрама, 2012) [480x20 ...
  • Суррогат / The Sessions (Бен Луин, Драма, 2012) [BDRip-AVC, Профессиональны ...
  • Холостячки / Bachelorette (Лесли Хэдланд, комедия, 2012) [BDRip 720p, Дубли ...
  • Переростки / The Inbetweeners (Бен Палмер, Комедия, 2011) [BDRip-AVC, Профе ...
  • Нежность / La délicatesse (Давид Фонкинос, Стефан Фонкинос, мелодрама, коме ...
  • Эд Вуд / Ed Wood (Тим Бёртон, драма, комедия, биография, 1994) [BDRip-AVC, ...
  • Холостячки / Bachelorette (Лесли Хэдланд, Комедия, 2012) [DVD5, Дубляж]
  • Переростки / The Inbetweeners (Бен Палмер / Ben Palmer, комедия, 2011) [BDR ...
  • Лоракс: Серенада / The Lorax: Serenade (Кайл Балда, мультфильм, комедия, му ...
  • Монстры на каникулах / Hotel Transylvania (Геннадий Тартаковский, мультфиль ...
  • Сейчас самое время / Now Is Good (Ол Паркер, Мелодрама, 2012) [BDRip-AVC, П ...
  • Холостячки / Bachelorette (Лесли Хэдланд, комедия, 2012) [HDRip, Дубляж]
  • Холостячки / Bachelorette (Лесли Хэдланд, комедия, 2012) [HDRip, Дубляж]
  • Информация
    Посетители, находящиеся в группе Гости, не могут оставлять комментарии к данной публикации.