вход на сайт

Имя пользователя :
Пароль :

Восстановление пароля Регистрация
Никто не знает ничего / Nobody Knows Anything! (Уильям Тэннен, Комедия, 2003) [BDRip-AVC, Профессиональный (двухголосый закадровый) + Оригинал (Английский)]
Рейтинг:
(голосов: 1)



[img]{THEME}/images/logopost.png[/img]



Никто не знает ничего / Nobody Knows Anything!

Год: 2003
Страна: США
Производство: Echelon Entertainment Inc, West Wind Entertainment
Жанр: Комедия

Режиссёр: Уильям Тэннен
В ролях: Линда Блэк, Алан Блюменфилд, Кармине Кариди, Маргарет Чо, Питер Коэн, Стефен Колбер, Майк Коннорс, Пол Дули, Мёрфи Данн, Роберт Инглунд...

Перевод: Профессиональный (двухголосый закадровый) + Оригинал (Английский)
Субтитры: нет

Описание: Снять фильм в Голливуде казалось плевым делом, особенно если ты молода, сексуальна и полна уверенности в себе. Сэра Уайлдер приезжает в Голливуд, чтобы снять свой первый фильм, который положит достойное начало ее блестящей карьере.

Единственный ее контакт в Голливуде — ее дядя Лу, когда-то работавший сценаристом. Под его руководством и пользуясь его связями, Сэра входит в мир Голливуда, где встречает чокнутых работников студий, сумасшедших продюсеров и гангстера, готового финансировать ее фильм… но с условием!



Качество: BDRip-AVC | Сэмпл
Продолжительность: 01:24:54

Формат: MKV
Видео кодек: x.264
Аудио кодек: AC3 Dolby Digital
Видео: 1024x640 (1,600), 25 fps, AVC, 1872 kbps, 0.114 bit/pixel
Аудио #1: 48 kHz, AC3 Dolby Digital, 6 ch, ~384.00 kbps (Русский)
Аудио #2: 48 kHz, AC3 Dolby Digital, 2 ch, ~192.00 kbps (Английский)

"Media Info" ▼Общее
Уникальный идентификатор : 228516136428578792215221522640801265202 (0xABEA9B63D9BB0C178F72B3E8C0A67632)
Полное имя : D:TorrentNobody Knows Anything.2003.BDRip-AVC.mkv
Формат : Matroska
Версия формата : Version 4 / Version 2
Размер файла : 1,45 Гбайт
Продолжительность : 1 ч. 24 м.
Общий поток : 2447 Кбит/сек
Название фильма : Никто не знает ничего / Nobody Knows Anything! (2003) BDRip-AVC rip by Rulya74
Дата кодирования : UTC 2013-05-11 04:01:05
Программа кодирования : mkvmerge v6.2.0 (Promised Land) built on Apr 28 2013 12:22:01
Библиотека кодирования : libebml v1.3.0 + libmatroska v1.4.0

Видео
Идентификатор : 1
Формат : AVC
Формат/Информация : Advanced Video Codec
Профиль формата : [email protected]
Параметр CABAC формата : Да
Параметр ReFrames формата : 10 кадров
Идентификатор кодека : V_MPEG4/ISO/AVC
Продолжительность : 1 ч. 24 м.
Битрейт : 1872 Кбит/сек
Ширина : 1024 пикселя
Высота : 640 пикселей
Соотношение сторон : 1,600
Режим частоты кадров : Постоянный
Частота кадров : 25,000 кадров/сек
Цветовое пространство : YUV
Субдискретизация насыщенности : 4:2:0
Битовая глубина : 8 бит
Тип развёртки : Прогрессивная
Бит/(Пиксели*Кадры) : 0.114
Размер потока : 1,08 Гбайт (74%)
Библиотека кодирования : x264 core 130 r2273 b3065e6
Настройки программы : cabac=1 / ref=10 / deblock=1:-2:-1 / analyse=0x1:0x111 / me=umh / subme=9 / psy=1 / psy_rd=1.04:0.05 / mixed_ref=1 / me_range=32 / chroma_me=1 / trellis=0 / 8x8dct=0 / cqm=0 / deadzone=21,11 / fast_pskip=0 / chroma_qp_offset=-2 / threads=3 / lookahead_threads=6 / sliced_threads=0 / nr=0 / decimate=0 / interlaced=0 / bluray_compat=0 / constrained_intra=0 / bframes=7 / b_pyramid=2 / b_adapt=0 / b_bias=0 / direct=0 / weightb=0 / open_gop=0 / weightp=0 / keyint=250 / keyint_min=25 / scenecut=40 / intra_refresh=0 / rc_lookahead=60 / rc=2pass / mbtree=1 / bitrate=1872 / ratetol=1.0 / qcomp=0.60 / qpmin=0 / qpmax=69 / qpstep=4 / cplxblur=20.0 / qblur=0.5 / vbv_maxrate=10000 / vbv_bufsize=10000 / nal_hrd=none / ip_ratio=1.40 / aq=1:1.00
Default : Да
Forced : Нет

Аудио #1
Идентификатор : 2
Формат : AC-3
Формат/Информация : Audio Coding 3
Расширение режима : CM (complete main)
Параметр Endianness формата : Big
Идентификатор кодека : A_AC3
Продолжительность : 1 ч. 24 м.
Вид битрейта : Постоянный
Битрейт : 384 Кбит/сек
Каналы : 6 каналов
Расположение каналов : Front: L C R, Side: L R, LFE
Частота : 48,0 КГц
Битовая глубина : 16 бит
Метод сжатия : С потерями
Размер потока : 233 Мбайт (16%)
Заголовок : Профессиональный (двухголосый закадровый)
Язык : Russian
Default : Да
94daf9bef2e727ab7031a6a035e789b8f2f98451Никто не знает ничего / Nobody Knows Anything! (Уильям Тэннен, Комедия, 2003) [BDRip-AVC, Профессиональный (двухголосый закадровый) + Оригинал (Английский)] Никто не знает ничего / Nobody Knows Anything! (Уильям Тэннен, Комедия, 2003) [BDRip-AVC, Профессиональный (двухголосый закадровый) + Оригинал (Английский)] " />

Аплоадер: Админ, дата: 11-05-2013, 13:37, торрент скачан: 359 раз

Понравилась раздача? Посмотрите эти:
  • Одноклассники 2 / Grown Ups 2 (Деннис Дуган, Комедия, 2013) [BDRip-AVC, Про ...
  • Погнали! / Getaway (Кортни Соломон, боевик, криминал, 2013) [BDRip 1080p, П ...
  • Погнали! / Getaway (Кортни Соломон, боевик, криминал, 2013) [BDRip-AVC, Про ...
  • 11.6 / 11.6 (Филипп Годо, Драма, триллер, криминал, 2013) [BDRip-AVC, Профе ...
  • Изоляция / Isolation (Билли О`Брайэн, ужасы, триллер, 2005) [BDRip-AVC, Про ...
  • Мальчишник: Часть III / The Hangover Part III (Тодд Филлипс, комедия, 2013) ...
  • Филадельфия / Philadelphia (Джонатан Демме, Драма, 1993) [BDRip-AVC, Профес ...
  • Башня / The Tower (Чи-хун Ким, драма, 2012) [BDRip-AVC, Любительский (двухг ...
  • Больше чем мёд / More Than Honey (документальный, 2012) [BDRip 720p, Профес ...
  • Никто не выжил / No One Lives (Рюхэй Китамура, Триллер, ужасы, 2012) [BDRip ...
  • Летучий отряд Скотланд-Ярда / The Sweeney (Ник Лав, Боевик, драма, криминал ...
  • Поймай толстуху, если сможешь / Identity Thief [Theatrical Cut] (Сет Гордон ...
  • Порочные игры / Stoker (Пак Чхан Ук, Триллер, драма, детектив, 2013) [BDRip ...
  • Порочные игры / Stoker (Пак Чхан Ук, Триллер, драма, детектив, 2013) [BDRip ...
  • Голливудский мусор / Garbage (Филипп Волкен, драма, комедия, 2013) [HDTVRip ...
  • Рикошет / Ricochet (Ник Гомез, драма, детектив, 2011) [BDRip-AVC, Профессио ...
  • Волшебная страна / Finding Neverland (Марк Форстер, Драма, семейный, биогра ...
  • Даю год / I Give It a Year (Дэн Мазер, мелодрама, комедия, 2012) [BDRip-AVC ...
  • Суррогат / The Sessions (Бен Луин, Драма, 2012) [BDRip-AVC, Профессиональны ...
  • Эд Вуд / Ed Wood (Тим Бёртон, драма, комедия, биография, 1994) [BDRip-AVC, ...
  • Информация
    Посетители, находящиеся в группе Гости, не могут оставлять комментарии к данной публикации.