вход на сайт

Имя пользователя :
Пароль :

Восстановление пароля Регистрация
Моя новая машина / It Takes Two (Дэвид Биэрд, комедия, 1988) [HDTVRip, Профессиональный (двухголосый закадровый) НТВ+]
Рейтинг:
(голосов: 1)



[img]{THEME}/images/logopost.png[/img]



Моя новая машина / It Takes Two

Год выпуска: 1988
Страна: США
Производство: Metro Goldwyn Mayer
Жанр: комедия

Режиссёр: Дэвид Биэрд
В ролях: Джордж Ньюберн, Лесли Хоуп, Кимберли Фостер, Бэрри Корбин, Энтони Джиари, Фрэнсис Ли МакКейн, Пэтрика Дарбо, Марко Перелла, Билл Болендер, Джерри Биггз

Перевод: Профессиональный (двухголосый закадровый) НТВ+
Субтитры: Отсутствуют

Описание:
Жених покупает себе спортивный автомобиль… накануне свадьбы.


Дополнительно:
Рейтинг MPAA: ▼
Рейтинг PG-13 - Детям до 13 лет просмотр не желателен



MediaInfo ▼Text
Общее
Полное имя :D:Моя новая машинаМоя новая машина.avi
Формат :AVI
Размер :1.37 GiB
Продолжительность :01:15:34.760
Общий поток :2 592 Kbps
Программа кодирования :VirtualDubMod 1.5.10.3 | www.virtualdub-fr.org || (build 2550/release)

Видео
Идентификатор :0
Формат :MPEG-4 Visual
Профиль формата :Advanced [email protected]
Параметр BVOP формата :2
Параметр Qpel формата :No
Параметр GMC формата :0
Параметр Matrix формата :Custom
Идентификатор кодека :XVID
Продолжительность :1h 15mn 34s 760ms
Битрейт :2 390 Kbps
Ширина :720 pixels
Высота :400 pixels
Соотношение сторон :1.800
Частота кадров :25.000 fps
Глубина цвета :8 bits
Подвыборка цветности :4:2:0
Цветовое пространство :YUV
Тип развертки :Progressive
Бит/(Пиксели*Кадры) :0.332
Размер потока :1.26 GiB (92%)
Библиотека кодирования :XviD0050

Аудио #1
Идентификатор :1
Формат :AC-3
Формат/Информация :Audio Coding 3
Идентификатор кодека :2000
Продолжительность :01:15:34.760
Вид битрейта :Constant
Битрейт :192 Kbps
Канал(ы) :2 channels
Расположение каналов :Front: L R
Частота :48.0 KHz
Битовая глубина :16 bits
Метод сжатия :Lossy
Размер потока :104 MiB (7%)



Тех. данные:
Качество:HDTVRip
Продолжительность:01:15:30 час

Формат: AV
833d0885f9b7d5c2bb7eefb93a1798a0d9fc853dМоя новая машина / It Takes Two (Дэвид Биэрд, комедия, 1988) [HDTVRip, Профессиональный (двухголосый закадровый) НТВ+] Моя новая машина / It Takes Two (Дэвид Биэрд, комедия, 1988) [HDTVRip, Профессиональный (двухголосый закадровый) НТВ+] " />

Аплоадер: Админ, дата: 19-08-2013, 14:23, торрент скачан: 359 раз

Понравилась раздача? Посмотрите эти:
  • Последний раз, когда я видел Париж / The Last Time I Saw Paris (Ричард Брук ...
  • Элмер Гантри / Elmer Gantry (Ричард Брукс, драма, 1960) [HDTVRip, Профессио ...
  • Танго ревности / Il tango della gelosia (Энрико Ванцина, Стено, Альдо Де Бе ...
  • Мистер Хоббс берет выходной / Mr. Hobbs Takes a Vacation (Генри Костер, ком ...
  • Гарри-карманник / Harry in Your Pocket (Брюс Геллер, драма, комедия, кримин ...
  • Поездка в Америку / Coming to America (Джон Лэндис, драма, мелодрама, комед ...
  • Одинокие сердца / Lonely Hearts (Пол Кокс, драма, мелодрама, 1975) [HDTVRip ...
  • На тропе войны / War Party (Фрэнк Роддэм, боевик, драма, 1988) [HDTVRip, Пр ...
  • Лукас / Lucas (Дэвид Зельцер, драма, мелодрама, комедия, 1986) [HDRip, Авто ...
  • Миссисипи в огне / Mississippi Burning (Алан Паркер, триллер, драма, детект ...
  • Однажды на матрасе / Once Upon a Mattress (Кэтлин Маршалл, мюзикл, мелодрам ...
  • Обнаженная / Naked (Майк Ли, драма, комедия, 1993) [DVDRip, (2х)Профессиона ...
  • Шампунь / Shampoo (Хэл Эшби, драма, мелодрама, 1975) [HDTVRip, Профессионал ...
  • Процесс Жанны Д Арк / Proces de Jeanne dArc (Робер Брессон, драма, военный, ...
  • Тристана / Tristana (Луис Бунюэль, Драма, 1970) [DVDRip, Профессиональный ( ...
  • Великий Уолдо Пеппер / The Great Waldo Pepper (Джордж Рой Хилл, драма, прик ...
  • Полная Луна в голубой воде / Full Moon in Blue Water (Питер Мастерсон, Драм ...
  • Рай и ад / Tengoku to jigoku (Акира Куросава, триллер, драма, криминал, 196 ...
  • Джек-потрошитель / Jack the Ripper (2 части из 2) (Дэвид Уикс, триллер, дра ...
  • Дьявольское око / Djдvulens цga (Ингмар Бергман, фэнтези, драма, комедия, 1 ...
  • Соседи / Neighbors (Джон Г. Эвилдсен, Комедия, 1981) [HDTVRip, Профессионал ...
  • Убей! / Kiru (Кихачи Окамото, боевик, драма, комедия, 1968) [DVDRip, Профес ...
  • Что навеял ветер / Something in the Wind (Ирвинг Пичел, мюзикл, комедия, 19 ...
  • Безжалостные люди / Ruthless People (Джим Абрахамс, Дэвид Цукер, Джерри Цук ...
  • Король Ральф / King Ralph (Дэвид С. Уорд, мелодрама, комедия, 1991) [HDTVRi ...
  • Информация
    Посетители, находящиеся в группе Гости, не могут оставлять комментарии к данной публикации.