вход на сайт

Имя пользователя :
Пароль :

Восстановление пароля Регистрация
Раз! Два! Три! Умри! / Sightseers (Бен Уитли, комедия, 2012) [HDRip-AVC, Профессиональный (дублированный)]
Рейтинг:
(голосов: 1)



[img]{THEME}/images/logopost.png[/img]



Раз! Два! Три! Умри! / Sightseers
«Роуд-муви о влюбленных… в убийства»

Год выпуска: 2012
Страна: Великобритания
Производство: BFI, Big Talk Productions, Rook Films
Жанр: комедия

Режиссёр: Бен Уитли
В ролях: Элис Лоу, Стив Орам, Эйлин Дейвис, Ричард Гловер, Моника Долан, Джонатан Арис, Ричард Ламсден, Рэйчел Остин, Тони Вэй, Доминик Эпплуайт

Перевод: Профессиональный (дублированный)
Субтитры: Отсутствуют

Описание: Самая обычная влюбленная парочка, Тина и Крис, отправляются в самое обычное путешествие по северу Англии в самом обычном фургончике. Внешне они ничем не отличаются от типичных английских туристов — милые, похотливые и одержимые друг другом зануды, которых раздражает и бесит практически всё: от шумных сектантов и брошенной на пол в автобусе обертки мороженого до обидных слов в свой адрес и хвастовства случайных милых знакомых.

Вот только Крис совсем не относится к числу тех, кто готов мириться с «раздражителями», а Тина окажется вовсе не так невинна: идеальные убойные каникулы влюбленных начинаются в Англии.



Релиз:
Автор рипа: avproh

Качество: HDRip-AVC | исх.Raz.dva.tri.umri.2012.L1.BDRip.720p
Продолжительность: 01:28:10

Формат: MKV
Видео кодек: x.264
Аудио кодек: AC3
Видео: 1040x442 (2.35:1), 23.976 fps, H264 ~ 2106 kbps avg, 0.191 bit/pixel
Аудио: 48 kHz, AC3 Dolby Digital, 3/2 (L,C,R,l,r) + LFE ch, ~256 kbps avg

Премьера (мир): 23 мая 2012
Премьера (РФ): 21 февраля 2013, «Organic Films», «Utopia Pictures»

Media Info ▼Общее
Полное имя : Raz.Dva.Tri.Umri.2012.D.HDRip-AVC_[Youtracker]_by_avproh.mkv
Формат : Matroska
Версия формата : Version 4 / Version 2
Размер файла : 1,46 Гбайт
Продолжительность : 1 ч. 28 м.
Общий поток : 2364 Кбит/сек
Дата кодирования : UTC 2013-07-28 03:33:01
Программа кодирования : mkvmerge v6.1.0 (Old Devil) built on Mar 2 2013 14:32:37
Библиотека кодирования : libebml v1.3.0 + libmatroska v1.4.0

Видео
Идентификатор : 1
Формат : AVC
Формат/Информация : Advanced Video Codec
Профиль формата : [email protected]
Параметр CABAC формата : Да
Параметр ReFrames формата : 11 кадров
Идентификатор кодека : V_MPEG4/ISO/AVC
Продолжительность : 1 ч. 28 м.
Битрейт : 2106 Кбит/сек
Ширина : 1040 пикселей
Высота : 442 пикселя
Соотношение сторон : 2,35:1
Режим частоты кадров : Постоянный
Частота кадров : 23,976 кадра/сек
Цветовое пространство : YUV
Субдискретизация насыщенности : 4:2:0
Битовая глубина : 8 бит
Тип развёртки : Прогрессивная
Бит/(Пиксели*Кадры) : 0.191
Размер потока : 1,27 Гбайт (87%)
Библиотека кодирования : x264 core 130 r2273 b3065e6
Настройки программы : cabac=1 / ref=11 / deblock=1:-2:-1 / analyse=0x3:0x113 / me=umh / subme=9 / psy=1 / psy_rd=1.00:0.10 / mixed_ref=1 / me_range=32 / chroma_me=1 / trellis=2 / 8x8dct=1 / cqm=0 / deadzone=21,11 / fast_pskip=1 / chroma_qp_offset=-3 / threads=6 / lookahead_threads=1 / sliced_threads=0 / nr=0 / decimate=1 / interlaced=0 / bluray_compat=0 / constrained_intra=0 / bframes=10 / b_pyramid=2 / b_adapt=2 / b_bias=0 / direct=3 / weightb=1 / open_gop=0 / weightp=2 / keyint=240 / keyint_min=23 / scenecut=40 / intra_refresh=0 / rc_lookahead=80 / rc=2pass / mbtree=1 / bitrate=2106 / ratetol=1.0 / qcomp=0.60 / qpmin=0 / qpmax=69 / qpstep=4 / cplxblur=20.0 / qblur=0.5 / ip_ratio=1.40 / aq=2:0.90
Язык : English
Default : Да
Forced : Нет

Аудио
Идентификатор : 2
Формат : AC-3
Формат/Информация : Audio Coding 3
Расширение режима : CM (complete main)
Параметр Endianness формата : Big
Идентификатор кодека : A_AC3
Продолжительность : 1 ч. 28 м.
Вид битрейта : Постоянный
Битрейт : 256 Кбит/сек
Каналы : 6 каналов
Расположение каналов : Front: L C R, Side: L R, LFE
Частота : 48,0 КГц
Битовая глубина : 16 бит
Метод сжатия : С потерями
Размер потока : 161 Мбайт (11%)
Язык : Russian
Default : Да
Forced : Нет







865c7dee88d031d04c517f34d498799ed543428cРаз! Два! Три! Умри! / Sightseers (Бен Уитли, комедия, 2012) [HDRip-AVC, Профессиональный (дублированный)] Раз! Два! Три! Умри! / Sightseers (Бен Уитли, комедия, 2012) [HDRip-AVC, Профессиональный (дублированный)] " />

Аплоадер: Админ, дата: 28-07-2013, 13:20, торрент скачан: 359 раз

Понравилась раздача? Посмотрите эти:
  • Бойфренд из будущего / About Time (Ричард Кёртис, Фантастика, драма, комеди ...
  • Одноклассники 2 / Grown Ups 2 (Деннис Дуган, Комедия, 2013) [BDRip-AVC, Про ...
  • Одноклассники 2 / Grown Ups 2 (Деннис Дуган, комедия, 2013) [BDRip 1080p, Д ...
  • Мальчишник: Часть III / The Hangover Part III (Тодд Филлипс, комедия, 2013) ...
  • Заклятие / The Conjuring (Джеймс Ван, ужасы, триллер, 2013) [BDRip 720р, Ду ...
  • Заклятие / The Conjuring (Джеймс Ван, ужасы, триллер, 2013) [BDRip 1080p, Д ...
  • Раз! Два! Три! Умри! / Sightseers (Бен Уитли, Комедия, драма, 2012) [BDRip, ...
  • Филадельфия / Philadelphia (Джонатан Демме, Драма, 1993) [BDRip-AVC, Профес ...
  • Кодовое имя «Джеронимо» / Seal Team Six: The Raid on Osama Bin Laden (Джон ...
  • Поймай толстуху, если сможешь / Identity Thief [Theatrical Cut] (Сет Гордон ...
  • Самозванец / The Imposter (документальный, биография, 2012) [BDRip-AVC, Про ...
  • Раз! Два! Три! Умри! / Sightseers (Бен Уитли, комедия, 2012) [HDRip, Профес ...
  • Раз! Два! Три! Умри! / Sightseers (Бен Уитли, комедия, 2012) [HDRip, Профес ...
  • Железяки / Yak (Прапас Чолсаранонт, мультфильм, 2012) [DVDRip-AVC, Професси ...
  • Виолет и Дейзи / Sightseers (Джеффри Флетчер, боевик, триллер, драма, комед ...
  • Ворон / The Raven (Джеймс МакТиг, Триллер, детектив, 2012) [BDRip 1080p, Ду ...
  • Даю год / I Give It a Year (Дэн Мазер, мелодрама, комедия, 2012) [BDRip-AVC ...
  • 21 и больше / 21 & Over (Джон Лукас, Скотт Мур, Комедия, 2013) [BDRip-AVC, ...
  • 21 и больше / 21 & Over (Джон Лукас, Скотт Мур, комедия, 2013) [DVDRip-AVC, ...
  • [EN] Раз! Два! Три! Умри! / Sightseers (Бен Уитли, комедия, 2012) [BDRip-AV ...
  • [Трейлер] Раз! Два! Три! Умри! / Sightseers (Бен Уитли, комедия) [HDRip, Пр ...
  • Суррогат / The Sessions (Бен Луин, Драма, 2012) [BDRip-AVC, Профессиональны ...
  • Чемпионат Англии 2012-2013 / 25-й тур / Обзор / Суббота / BBC Sport [2013 г ...
  • Переростки / The Inbetweeners (Бен Палмер, Комедия, 2011) [BDRip-AVC, Профе ...
  • Помогите Стать Отцом / Not Suitable For Children (Питер Темплмен, Мелодрама ...
  • Информация
    Посетители, находящиеся в группе Гости, не могут оставлять комментарии к данной публикации.