вход на сайт

Имя пользователя :
Пароль :

Восстановление пароля Регистрация
Очень страшное кино 5 / Scary MoVie (Малкольм Д. Ли, Комедия, 2013) [BDRip, Дубляж]
Рейтинг:
(голосов: 1)



[img]{THEME}/images/logopost.png[/img]



Очень страшное кино 5 / Scary MoVie
«Зло поднимается. Готовьте контрацептивы»

Год выпуска: 2013
Страна: США
Производство: Brad Grey Pictures, Dimension Films, DZE
Жанр: Комедия

Режиссёр: Малкольм Д. Ли
В ролях: Эшли Тисдейл, Саймон Рекс, Эрика Эш, Катрина Боуден, Терри Крюс, Хэзер Локлир, Жан-Поль Мано, Джерри О’Коннелл, Молли Шеннон, Снуп Догг

Перевод: Дубляж
Субтитры: Отсутствуют

Описание: Молодая супружеская пара Дэн и Джоди начинают замечать некоторые странные активности, когда они приносят двух осиротевших племянниц домой из больницы. Но когда нарастают проблемы и хаос в работе Джоди и карьере Дэна, они понимают, что их семью преследуют гнусные демоны. Вместе с советом сертифицированных специалистов и при помощи многочисленных камер, они должны выяснить, как избавиться от этих существ, пока не стало слишком поздно.



Качество: BDRip | Сравнение скриншотов с этой раздачей | Сэмпл |
Продолжительность: 01:25:46 час.

Формат: AVI
Видео кодек: XviD
Аудио кодек: AC3
Видео: 704x400 (16:9), 24.000 fps, XviD build 65 ~1 977 kbps avg, 0.293 bit/pixel
Аудио: 48 kHz, AC3, 3/2 (L,C,R,l,r) + LFE ch, ~448.00 kbps avg - (Дубляж)

Дата премьеры (мир): 11 апреля 2013
Дата премьеры (РФ): 25 апреля 2013, «UPI», «Премиум Фильм»

MediaInfo ▼ General
Complete name : DScary.MoVie.5.2013.Dub.RUS-Transfer.BDRip.1,46Gb.XviD.AC3.avi
Format : AVI
Format/Info : Audio Video Interleave
File size : 1.46 GiB
Duration : 1h 25mn
Overall bit rate : 2 434 Kbps
Writing application : VirtualDubModRus 1.5.10.2 (build 2542/release)
Writing library : VirtualDubMod build 2542/release

Video
ID : 0
Format : MPEG-4 Visual
Format profile : Advanced [email protected]
Format settings, BVOP : 1
Format settings, QPel : No
Format settings, GMC : No warppoints
Format settings, Matrix : Custom
Codec ID : XVID
Codec ID/Hint : XviD
Duration : 1h 25mn
Bit rate : 1 977 Kbps
Width : 704 pixels
Height : 400 pixels
Display aspect ratio : 16:9
Frame rate : 24.000 fps
Color space : YUV
Chroma subsampling : 4:2:0
Bit depth : 8 bits
Scan type : Progressive
Compression mode : Lossy
Bits/(Pixel*Frame) : 0.293
Stream size : 1.18 GiB (81%)
Writing library : XviD 65

Audio
ID : 1
Format : AC-3
Format/Info : Audio Coding 3
Mode extension : CM (complete main)
Format settings, Endianness : Big
Codec ID : 2000
Duration : 1h 25mn
Bit rate mode : Constant
Bit rate : 448 Kbps
Channel(s) : 6 channels
Channel positions : Front: L C R, Side: L R, LFE
Sampling rate : 48.0 KHz
Bit depth : 16 bits
Compression mode : Lossy
Stream size : 275 MiB (18%)
Alignment : Split accross interleaves
Interleave, duration : 42 ms (1.00 video frame)
Interleave, preload duration : 500 ms
Title : Dub






ab0170844d84051036a8cce534101417f9b79528Очень страшное кино 5 / Scary MoVie (Малкольм Д. Ли, Комедия, 2013) [BDRip, Дубляж] Очень страшное кино 5 / Scary MoVie (Малкольм Д. Ли, Комедия, 2013) [BDRip, Дубляж] " />

Аплоадер: Админ, дата: 17-07-2013, 22:57, торрент скачан: 359 раз

Понравилась раздача? Посмотрите эти:
  • Война миров Z [Театральная версия] / World War Z [Theatrical Cut] (Марк Фор ...
  • Очень страшное кино 5 / Scary MoVie (Малкольм Д. Ли, Комедия, 2013) [BDRip- ...
  • Поймай толстуху, если сможешь [Театральная версия] / Identity Thief [Theatr ...
  • Очень страшное кино 5 / Scary MoVie (Малкольм Д. Ли, Комедия, 2013) [Blu-ra ...
  • Очень страшное кино 5 / Scary MoVie (Малкольм Д. Ли, комедия, 2013) [BDRip, ...
  • Очень страшное кино 5 / Scary Movie 5 (Малкольн Д. Ли, комедия, 2013) [DVD5 ...
  • Очень страшное кино 5 / Scary MoVie (Малкольм Д. Ли, Комедия, 2013) [BDRip ...
  • Очень страшное кино 5 / Scary MoVie (Малкольм Д. Ли, Комедия, 2013) [BDRip- ...
  • Очень страшное кино 5 / Scary MoVie (Малкольм Д. Ли, Комедия, 2013) [BDRip- ...
  • Очень страшное кино 5 / Scary MoVie (Малкольм Д. Ли, Комедия, 2013) [BDRip- ...
  • Очень страшное кино 5 / Scary Movie 5 (Малкольн Д. Ли, комедия, 2013) [BDRi ...
  • [Phone, iPod] Очень страшное кино 5 / Scary MoVie (Малкольм Д. Ли, комедия, ...
  • Очень страшное кино / Scary Movie (Кинен Айвори Уайанс, Комедия, 2000) [HDR ...
  • Очень страшное кино 2 / Scary Movie 2 (Кинен Айвори Уайанс, Комедия, 2001) ...
  • Очень страшное кино 4 (Расширенная версия) / Scary Movie 4 (Unrated) (Дэвид ...
  • Муви 43 / Movie 43 (Стивен Брилл, Питер Фаррелли, Элизабет БэнксСтивен, ком ...
  • [Трейлер] Очень страшное кино 5 / Scary Movie 5 (Малкольм Д. Ли, комедия) [ ...
  • Очень страшное кино [Квадрология] / Scary movie [Quadrology] (Кинен Айвори ...
  • Очень страшное кино / Scary Movie (Кинен Айвори Уайанс, Комедия, 2000) [BDR ...
  • Очень страшное кино 2 / Scary Movie 2 (Кинен Айвори Уайанс, Комедия, 2001) ...
  • Информация
    Посетители, находящиеся в группе Гости, не могут оставлять комментарии к данной публикации.