вход на сайт

Имя пользователя :
Пароль :

Восстановление пароля Регистрация
Очень страшное кино 5 / Scary MoVie (Малкольм Д. Ли, Комедия, 2013) [BDRip-AVC, Дубляж]
Рейтинг:
(голосов: 1)



[img]{THEME}/images/logopost.png[/img]



Очень страшное кино 5 / Scary MoVie
«Зло поднимается. Готовьте контрацептивы»

Год выпуска: 2013
Страна: США
Производство: Brad Grey Pictures, Dimension Films, DZE
Жанр: Комедия

Режиссёр: Малкольм Д. Ли
В ролях: Эшли Тисдейл, Саймон Рекс, Эрика Эш, Катрина Боуден, Терри Крюс, Хэзер Локлир, Жан-Поль Мано, Джерри О’Коннелл, Молли Шеннон, Снуп Догг

Перевод: Дубляж
Субтитры: Отсутствуют

Описание: Молодая супружеская пара Дэн и Джоди начинают замечать некоторые странные активности, когда они приносят двух осиротевших племянниц домой из больницы. Но когда нарастают проблемы и хаос в работе Джоди и карьере Дэна, они понимают, что их семью преследуют гнусные демоны. Вместе с советом сертифицированных специалистов и при помощи многочисленных камер, они должны выяснить, как избавиться от этих существ, пока не стало слишком поздно.



Качество: BDRip-AVC |Сэмпл |
Продолжительность: 01:25:46 час.

Формат: MKV
Видео кодек: x264
Аудио кодек: AC3
Видео: 1088x612 (16:9), 24.000 fps, x264 ~ 3 190 kbps avg, 0.200 bit/pixel
Аудио: 48 kHz, AC3, 3/2 (L,C,R,l,r) + LFE ch, ~448.00 kbps avg - (Дубляж)

Дата премьеры (мир): 11 апреля 2013
Дата премьеры (РФ): 25 апреля 2013, «UPI», «Премиум Фильм»

MediaInfo ▼
Общее
Уникальный идентификатор : 237203683113376656616082544630566274778 (0xB273C482EBD52B6795BBF7DA59A4C6DA)
Полное имя : Ochen.Strashnoje.Kino.5.2013.D.BDRip.x264.potroks.mkv
Формат : Matroska
Версия формата : Version 4 / Version 2
Размер файла : 2,18 Гбайт
Продолжительность : 1 ч. 25 м.
Общий поток : 3638 Кбит/сек
Название фильма : -=POTROKS=-
Дата кодирования : UTC 2013-07-17 14:18:00
Программа кодирования : mkvmerge v5.9.0 (On The Loose) built on Dec 15 2012 16:39:58
Библиотека кодирования : libebml v1.3.0 + libmatroska v1.4.0

Видео
Идентификатор : 1
Формат : AVC
Формат/Информация : Advanced Video Codec
Профиль формата : [email protected]
Параметр CABAC формата : Да
Параметр ReFrames формата : 9 кадров
Идентификатор кодека : V_MPEG4/ISO/AVC
Продолжительность : 1 ч. 25 м.
Битрейт : 3190 Кбит/сек
Ширина : 1088 пикселей
Высота : 612 пикселей
Соотношение сторон : 16:9
Режим частоты кадров : Постоянный
Частота кадров : 24,000 кадра/сек
Цветовое пространство : YUV
Субдискретизация насыщенности : 4:2:0
Битовая глубина : 8 бит
Тип развёртки : Прогрессивная
Бит/(Пиксели*Кадры) : 0.200
Размер потока : 1,87 Гбайт (86%)
Заголовок : Scary Movie 5
Библиотека кодирования : x264 core 128 r2216M 198a7ea
Настройки программы : cabac=1 / ref=10 / deblock=1:-2:-2 / analyse=0x3:0x133 / me=umh / subme=11 / psy=1 / psy_rd=1.08:0.05 / mixed_ref=1 / me_range=32 / chroma_me=1 / trellis=2 / 8x8dct=1 / cqm=0 / deadzone=21,11 / fast_pskip=0 / chroma_qp_offset=-3 / threads=6 / lookahead_threads=1 / sliced_threads=0 / nr=0 / decimate=0 / interlaced=0 / bluray_compat=0 / constrained_intra=0 / bframes=11 / b_pyramid=1 / b_adapt=2 / b_bias=0 / direct=3 / weightb=1 / open_gop=0 / weightp=2 / keyint=240 / keyint_min=24 / scenecut=40 / intra_refresh=0 / rc_lookahead=150 / rc=2pass / mbtree=1 / bitrate=3190 / ratetol=1.0 / qcomp=0.70 / qpmin=0 / qpmax=69 / qpstep=4 / cplxblur=20.0 / qblur=0.5 / vbv_maxrate=20000 / vbv_bufsize=25000 / nal_hrd=none / ip_ratio=1.35 / aq=1:0.85
Язык : English
Default : Да
Forced : Нет

Аудио
Идентификатор : 2
Формат : AC-3
Формат/Информация : Audio Coding 3
Расширение режима : CM (complete main)
Параметр Endianness формата : Big
Идентификатор кодека : A_AC3
Продолжительность : 1 ч. 25 м.
Вид битрейта : Постоянный
Битрейт : 448 Кбит/сек
Каналы : 6 каналов
Расположение каналов : Front: L C R, Side: L R, LFE
Частота : 48,0 КГц
Битовая глубина : 16 бит
Метод сжатия : С потерями
Размер потока : 275 Мбайт (12%)
Заголовок : Dub | DD 5.1 @ 448 kbps
Язык : Russian
Default : Да
Forced : Да






1989ccfb4ae37c5c29d46b1298aa6a13997e9017Очень страшное кино 5 / Scary MoVie (Малкольм Д. Ли, Комедия, 2013) [BDRip-AVC, Дубляж] Очень страшное кино 5 / Scary MoVie (Малкольм Д. Ли, Комедия, 2013) [BDRip-AVC, Дубляж] " />

Аплоадер: Админ, дата: 17-07-2013, 21:30, торрент скачан: 359 раз

Понравилась раздача? Посмотрите эти:
  • Одноклассники 2 / Grown Ups 2 (Деннис Дуган, Комедия, 2013) [BDRip-AVC, Про ...
  • Очень страшное кино 5 / Scary MoVie (Малкольм Д. Ли, Комедия, 2013) [BDRip- ...
  • Стукач / Snitch (Рик Роман Во, Триллер, драма, 2013) [BDRip-AVC, Дубляж, Ор ...
  • Невероятный Бёрт Уандерстоун / The Incredible Burt Wonderstone (Дон Скардин ...
  • Никто не выжил / No One Lives (Рюхэй Китамура, Триллер, ужасы, 2012) [BDRip ...
  • Поймай толстуху, если сможешь [Театральная версия] / Identity Thief [Theatr ...
  • Очень страшное кино 5 / Scary MoVie (Малкольм Д. Ли, Комедия, 2013) [Blu-ra ...
  • Очень страшное кино 5 / Scary MoVie (Малкольм Д. Ли, комедия, 2013) [BDRip, ...
  • Очень страшное кино 5 / Scary Movie 5 (Малкольн Д. Ли, комедия, 2013) [DVD5 ...
  • Очень страшное кино 5 / Scary MoVie (Малкольм Д. Ли, Комедия, 2013) [BDRip ...
  • Очень страшное кино 5 / Scary MoVie (Малкольм Д. Ли, Комедия, 2013) [BDRip- ...
  • Очень страшное кино 5 / Scary MoVie (Малкольм Д. Ли, Комедия, 2013) [BDRip- ...
  • Очень страшное кино 5 / Scary MoVie (Малкольм Д. Ли, Комедия, 2013) [BDRip, ...
  • Очень страшное кино 5 / Scary Movie 5 (Малкольн Д. Ли, комедия, 2013) [BDRi ...
  • [Phone, iPod] Очень страшное кино 5 / Scary MoVie (Малкольм Д. Ли, комедия, ...
  • Я очень возбужден / Los amantes pasajeros (Педро Альмодовар, Комедия, 2013) ...
  • Мама / Mama (Андрес Мускетти, ужасы, фэнтези, триллер, 2013) [BDRip-AVC, Пр ...
  • 21 и больше / 21 & Over (Джон Лукас, Скотт Мур, Комедия, 2013) [BDRip-AVC, ...
  • [Трейлер] Очень страшное кино 5 / Scary Movie 5 (Малкольм Д. Ли, комедия) [ ...
  • Ищу друга на конец света / Seeking a Friend for the End of the World (Лорен ...
  • Информация
    Посетители, находящиеся в группе Гости, не могут оставлять комментарии к данной публикации.