вход на сайт

Имя пользователя :
Пароль :

Восстановление пароля Регистрация
Поймай толстуху, если сможешь [Театральная версия] / Identity Thief [Theatrical Cut] (Сет Гордон, Комедия, криминал, 2013) [BDRip-AVC, Профессиональный (полное дублирование), оригинал (английский), Sub]
Рейтинг:
(голосов: 1)



[img]{THEME}/images/logopost.png[/img]



Поймай толстуху, если сможешь [Театральная версия] / Identity Thief [Theatrical Cut]

Год выпуска: 2013
Страна: США
Производство: Aggregate Films, DumbDumb, Stuber Productions
Жанр: Комедия, криминал

Режиссёр: Сет Гордон
В ролях: Джейсон Бейтман, Мелисса МакКарти, Аманда Пит, Роберт Патрик, Генезис Родригез, Ти-Ай, Джон Фавро, Моррис Честнат, Джон Чо, Эрик Стоунстрит

Перевод: Дублированное, оригинал (английский)
Субтитры: Русские (полные + форс.), английские (SDH)

Описание: История о человеке, у которого украли документы, удостоверяющие его личность, и к чему это привело.
Автор рипа:




Дата премьеры (мир): 7 февраля 2013
Дата премьеры (РФ): 21 марта 2013, «UPI»

Качество: BDRip-AVC [Blu-Ray Remux]
Продолжительность: 01:51:27

Формат: MKV
Видео кодек: H.264
Аудио кодек: AC3
Cвойства видео: 1040x442 (2,35:1), 23.976 fps, 2039 Кbps, 0.185 bit/pixel
Свойства аудио 1: 48 kHz, AC3 Dolby Digital, 3/2 (L,C,R,l,r) + LFE ch, 384.00 kbps | RUS
Свойства аудио 2: 48 kHz, AC3 Dolby Digital, 3/2 (L,C,R,l,r) + LFE ch, 384.00 kbps | ENG

MediaInfo ▼Общее
Уникальный идентификатор : 178875308422140200985683858983748702592 (0x8692219B93C5AE84879CC271D3911180)
Полное имя : Pojmaj.Tolstuhu.Esli.Smozhesh.2013.BDRip.x264.potroks.Theatrical.mkv
Формат : Matroska
Версия формата : Version 4 / Version 2
Размер файла : 2,19 Гбайт
Продолжительность : 1 ч. 51 м.
Общий поток : 2807 Кбит/сек
Название фильма : -=POTROKS=-
Дата кодирования : UTC 2013-07-16 02:24:41
Программа кодирования : mkvmerge v5.9.0 (On The Loose) built on Dec 15 2012 16:39:58
Библиотека кодирования : libebml v1.3.0 + libmatroska v1.4.0

Видео
Идентификатор : 1
Формат : AVC
Формат/Информация : Advanced Video Codec
Профиль формата : [email protected]
Параметр CABAC формата : Да
Параметр ReFrames формата : 10 кадров
Идентификатор кодека : V_MPEG4/ISO/AVC
Продолжительность : 1 ч. 51 м.
Битрейт : 2039 Кбит/сек
Ширина : 1040 пикселей
Высота : 442 пикселя
Соотношение сторон : 2,35:1
Режим частоты кадров : Постоянный
Частота кадров : 23,976 кадра/сек
Цветовое пространство : YUV
Субдискретизация насыщенности : 4:2:0
Битовая глубина : 8 бит
Тип развёртки : Прогрессивная
Бит/(Пиксели*Кадры) : 0.185
Размер потока : 1,54 Гбайт (71%)
Заголовок : Identity Thief
Библиотека кодирования : x264 core 130 r2273 b3065e6
Настройки программы : cabac=1 / ref=10 / deblock=1:-2:-1 / analyse=0x3:0x133 / me=umh / subme=11 / psy=1 / psy_rd=1.00:0.00 / mixed_ref=1 / me_range=32 / chroma_me=1 / trellis=2 / 8x8dct=1 / cqm=0 / deadzone=21,11 / fast_pskip=0 / chroma_qp_offset=-2 / threads=9 / lookahead_threads=2 / sliced_threads=0 / nr=0 / decimate=1 / interlaced=0 / bluray_compat=0 / constrained_intra=0 / bframes=11 / b_pyramid=2 / b_adapt=2 / b_bias=0 / direct=3 / weightb=1 / open_gop=0 / weightp=2 / keyint=240 / keyint_min=23 / scenecut=40 / intra_refresh=0 / rc_lookahead=150 / rc=2pass / mbtree=1 / bitrate=2039 / ratetol=1.0 / qcomp=0.70 / qpmin=0 / qpmax=69 / qpstep=4 / cplxblur=20.0 / qblur=0.5 / vbv_maxrate=20000 / vbv_bufsize=20000 / nal_hrd=none / ip_ratio=1.35 / aq=1:0.90
Язык : English
Default : Да
Forced : Нет

Аудио #1
Идентификатор : 2
Формат : AC-3
Формат/Информация : Audio Coding 3
Расширение режима : CM (complete main)
Параметр Endianness формата : Big
Идентификатор кодека : A_AC3
Продолжительность : 1 ч. 51 м.
Вид битрейта : Постоянный
Битрейт : 384 Кбит/сек
Каналы : 6 каналов
Расположение каналов : Front: L C R, Side: L R, LFE
Частота : 48,0 КГц
Битовая глубина : 16 бит
Метод сжатия : С потерями
Размер потока : 306 Мбайт (14%)
Заголовок : Dub | DD 5.1 @ 384 kbps
Язык : Russian
Default : Да
Forced : Да

Аудио #2
Идентификатор : 3
Формат : AC-3
Формат/Информация : Audio Coding 3
Расширение режима : CM (complete main)
Параметр Endianness формата : Big
Идентификатор кодека : A_AC3
Продолжительность : 1 ч. 51 м.
Вид битрейта : Постоянный
Битрейт : 384
fe38b71aa36dafa45e9fbbce8e85ceaeebb5b653Поймай толстуху, если сможешь [Театральная версия] / Identity Thief [Theatrical Cut] (Сет Гордон, Комедия, криминал, 2013) [BDRip-AVC, Профессиональный (полное дублирование), оригинал (английский), Sub] Поймай толстуху, если сможешь [Театральная версия] / Identity Thief [Theatrical Cut] (Сет Гордон, Комедия, криминал, 2013) [BDRip-AVC, Профессиональный (полное дублирование), оригинал (английский), Sub] " />

Аплоадер: Админ, дата: 16-07-2013, 10:21, торрент скачан: 359 раз

Понравилась раздача? Посмотрите эти:
  • Одноклассники 2 / Grown Ups 2 (Деннис Дуган, Комедия, 2013) [BDRip-AVC, Про ...
  • Погнали! / Getaway (Кортни Соломон, боевик, криминал, 2013) [BDRip-AVC, Про ...
  • Война миров Z / World War Z [Theatrical Cut] (Марк Форстер, ужасы, фантасти ...
  • Охотники на ведьм [Театральная версия] / Hansel & Gretel: Witch Hunters [Th ...
  • Летучий отряд Скотланд-Ярда / The Sweeney (Ник Лав, Боевик, драма, криминал ...
  • Поймай толстуху, если сможешь [Театральная версия] / Identity Thief [Theatr ...
  • Поймай толстуху, если сможешь [Театральная версия] / Identity Thief [Theatr ...
  • Поймай толстуху, если сможешь [Театральная версия] / Identity Thief [Theatr ...
  • Поймай толстуху, если сможешь / Identity Thief [Theatrical Cut] (Сет Гордон ...
  • Поймай толстуху, если сможешь [Театральная версия] / Identity Thief [Theatr ...
  • Поймай толстуху, если сможешь [Театральная версия] / Identity Thief [Theatr ...
  • Поймай толстуху, если сможешь / Identity Thief (Сет Гордон, комедия, кримин ...
  • Поймай толстуху, если сможешь [Театральная версия] / Identity Thief [Theatr ...
  • Поймай толстуху, если сможешь / Identity Thief [Theatrical Cut] (Сет Гордон ...
  • Поймай толстуху, если сможешь / Identity Thief [Theatrical Cut] (Сет Гордо ...
  • Поймай толстуху, если сможешь [Театральная версия] / Identity Thief [Theatr ...
  • [Phone, iPod] Поймай толстуху, если сможешь / Identity Thief (Сет Гордон, к ...
  • Фантомы / Shutter (Масаюки Очиай, ужасы, триллер, детектив, 2008) [BDRip-AV ...
  • Возвращение героя / The Last Stand (Ким Чжи Ун, боевик, триллер, криминал, ...
  • [Трейлер] Поймай толстуху, если сможешь / Identity Thief (Сет Гордон, комед ...
  • Информация
    Посетители, находящиеся в группе Гости, не могут оставлять комментарии к данной публикации.