вход на сайт

Имя пользователя :
Пароль :

Восстановление пароля Регистрация
Поймай толстуху, если сможешь / Identity Thief [Theatrical Cut] (Сет Гордон, Комедия, криминал, 2013) [BDRip-AVC, Профессиональный (дублированный), Sub]
Рейтинг:
(голосов: 1)



[img]{THEME}/images/logopost.png[/img]



Поймай толстуху, если сможешь / Identity Thief [Theatrical Cut]

Год выпуска: 2013
Страна: США
Производство: Aggregate Films, DumbDumb, Stuber Productions
Жанр: Комедия, криминал

Режиссёр: Сет Гордон
В ролях: Джейсон Бейтман, Мелисса МакКарти, Аманда Пит, Роберт Патрик, Генезис Родригез, Ти-Ай, Джон Фавро, Моррис Честнат, Джон Чо, Эрик Стоунстрит

Перевод: Профессиональный (дублированный)
Субтитры: Русские, Английские (отключаемые)

Описание: История о человеке, у которого украли документы, удостоверяющие его личность, и к чему это привело.





Качество: BDRip-AVC
Продолжительность: 01:51:27

Формат: MKV
Видео кодек: x.264
Аудио кодек: AC3
Видео: x.264 / 1024x432 / 2,40:1 / 1482 kbps / 23,976 fps / 0.140 bit/pixel
Аудио: AC3 Dolby Digital / 48 KHz / 384 kbps / 3/2 (L,C,R,l,r) + LFE ch

Премьера (мир): 7 февраля 2013
Премьера (РФ): 21 марта 2013, «UPI»

Media Info ▼Общее
Уникальный идентификатор : 240595198085652619060450401185241366668 (0xB500F31C0F0F2A32B73A60E4F90A008C)
Полное имя : D:Identity Thief.2013.BDRip-AVC.mkv
Формат : Matroska
Версия формата : Version 4 / Version 2
Размер файла : 1,45 Гбайт
Продолжительность : 1 ч. 51 м.
Общий поток : 1867 Кбит/сек
Название фильма : Поймай толстуху, если сможешь / Identity Thief (2013) BDRip-AVC | Theatrical Cut | rip by Rulya74
Дата кодирования : UTC 2013-07-06 05:26:06
Программа кодирования : mkvmerge v6.2.0 (Promised Land) built on Apr 28 2013 12:22:01
Библиотека кодирования : libebml v1.3.0 + libmatroska v1.4.0

Видео
Идентификатор : 1
Формат : AVC
Формат/Информация : Advanced Video Codec
Профиль формата : [email protected]
Параметр CABAC формата : Да
Параметр ReFrames формата : 10 кадров
Идентификатор кодека : V_MPEG4/ISO/AVC
Продолжительность : 1 ч. 51 м.
Битрейт : 1482 Кбит/сек
Ширина : 1024 пикселя
Высота : 432 пикселя
Соотношение сторон : 2,40:1
Режим частоты кадров : Постоянный
Частота кадров : 23,976 кадра/сек
Цветовое пространство : YUV
Субдискретизация насыщенности : 4:2:0
Битовая глубина : 8 бит
Тип развёртки : Прогрессивная
Бит/(Пиксели*Кадры) : 0.140
Размер потока : 1,12 Гбайт (77%)
Библиотека кодирования : x264 core 133 r2334 a3ac64b
Настройки программы : cabac=1 / ref=10 / deblock=1:-2:-1 / analyse=0x3:0x113 / me=umh / subme=10 / psy=1 / psy_rd=1.22:0.06 / mixed_ref=1 / me_range=32 / chroma_me=1 / trellis=2 / 8x8dct=1 / cqm=0 / deadzone=21,11 / fast_pskip=0 / chroma_qp_offset=-3 / threads=6 / lookahead_threads=1 / sliced_threads=0 / nr=0 / decimate=1 / interlaced=0 / bluray_compat=0 / constrained_intra=0 / bframes=8 / b_pyramid=2 / b_adapt=1 / b_bias=0 / direct=3 / weightb=1 / open_gop=0 / weightp=2 / keyint=240 / keyint_min=23 / scenecut=40 / intra_refresh=0 / rc_lookahead=40 / rc=2pass / mbtree=1 / bitrate=1482 / ratetol=1.0 / qcomp=0.60 / qpmin=0 / qpmax=69 / qpstep=4 / cplxblur=20.0 / qblur=0.5 / vbv_maxrate=62500 / vbv_bufsize=78125 / nal_hrd=none / ip_ratio=1.40 / aq=1:1.00
Default : Да
Forced : Нет

Аудио
Идентификатор : 2
Формат : AC-3
Формат/Информация : Audio Coding 3
Расширение режима : CM (complete main)
Параметр Endianness формата : Big
Идентификатор кодека : A_AC3
Продолжительность : 1 ч. 51 м.
Вид битрейта : Постоянный
Битрейт : 384 Кбит/сек
Каналы : 6 каналов
Расположение каналов : Front: L C R, Side: L R, LFE
Частота : 48,0 КГц
Битовая глубина : 16 бит
Метод сжатия : С потерями
Размер потока : 306 Мбайт (21%)
Заголовок : Дублированный
Язык : Russian
Default : Да
Forced : Нет

Текст #1
Идентификатор : 3
Формат : UTF-8
Идентификатор кодека : S_TEXT/UTF8
Идентификатор кодека/Информация : UTF-8 Plain Text
Язык : Russian
Default : Да
Forced : Нет

Текст #2
Идентификатор : 4
Формат : UTF-8
Идентификатор кодека : S_TEXT/UTF8
Идентификатор кодека/Информация : UTF-8 Pla
77ae74881206edfb681c30fbd79fd329ea34d1a7Поймай толстуху, если сможешь / Identity Thief [Theatrical Cut] (Сет Гордон, Комедия, криминал, 2013) [BDRip-AVC, Профессиональный (дублированный), Sub] Поймай толстуху, если сможешь / Identity Thief [Theatrical Cut] (Сет Гордон, Комедия, криминал, 2013) [BDRip-AVC, Профессиональный (дублированный), Sub] " />

Аплоадер: Админ, дата: 6-07-2013, 17:01, торрент скачан: 359 раз

Понравилась раздача? Посмотрите эти:
  • Бунраку / Bunraku (Гай Моше, боевик, триллер, драма, 2010) [BDRip-AVC, Проф ...
  • Одноклассники 2 / Grown Ups 2 (Деннис Дуган, Комедия, 2013) [BDRip-AVC, Про ...
  • Погнали! / Getaway (Кортни Соломон, боевик, криминал, 2013) [BDRip 1080p, П ...
  • Мальчишник: Часть III / The Hangover Part III (Тодд Филлипс, комедия, 2013) ...
  • Ананасовый экспресс: Сижу, курю / Pineapple Express (Дэвид Гордон Грин, бое ...
  • Иллюзия обмана / Now You See Me [Extended Cut] (Луи Летерье, триллер, крими ...
  • Заклятие / The Conjuring (Джеймс Ван, ужасы, триллер, 2013) [BDRip 720р, Ду ...
  • Заклятие / The Conjuring (Джеймс Ван, ужасы, триллер, 2013) [BDRip 1080p, Д ...
  • Поймай толстуху, если сможешь [Театральная версия] / Identity Thief [Theatr ...
  • Поймай толстуху, если сможешь [Театральная версия] / Identity Thief [Theatr ...
  • Поймай толстуху, если сможешь [Театральная версия] / Identity Thief [Theatr ...
  • Поймай толстуху, если сможешь / Identity Thief [Theatrical Cut] (Сет Гордон ...
  • Поймай толстуху, если сможешь [Театральная версия] / Identity Thief [Theatr ...
  • Поймай толстуху, если сможешь [Театральная версия] / Identity Thief [Theatr ...
  • Поймай толстуху, если сможешь / Identity Thief (Сет Гордон, комедия, кримин ...
  • Поймай толстуху, если сможешь [Театральная версия] / Identity Thief [Theatr ...
  • Поймай толстуху, если сможешь / Identity Thief [Theatrical Cut] (Сет Гордо ...
  • Поймай толстуху, если сможешь [Театральная версия] / Identity Thief [Theatr ...
  • [Phone, iPod] Поймай толстуху, если сможешь / Identity Thief (Сет Гордон, к ...
  • Поймай толстуху, если сможешь [Театральная версия] / Identity Thief [Theatr ...
  • Больше, чем любовь / A Lot Like Love (Найджел Коул, Драма, мелодрама, комед ...
  • Мрачные небеса / Dark Skies (Скотт Чарльз Стюарт, Ужасы, фантастика, трилле ...
  • Суррогат / The Sessions (Бен Луин, Драма, 2012) [BDRip-AVC, Профессиональны ...
  • Начинающие / Beginners (Майк Миллс / Mike Mills, драма, мелодрама, комедия, ...
  • [Трейлер] Поймай толстуху, если сможешь / Identity Thief (Сет Гордон, комед ...
  • Информация
    Посетители, находящиеся в группе Гости, не могут оставлять комментарии к данной публикации.