вход на сайт

Имя пользователя :
Пароль :

Восстановление пароля Регистрация
Повар для Президента / Les saveurs du Palais (Кристиан Венсан, комедия, биография, 2012) [BDRip-AVC, Профессиональный (многоголосый закадровый), Оригинал (Французский), Sub]
Рейтинг:
(голосов: 1)



[img]{THEME}/images/logopost.png[/img]



Повар для Президента / Les saveurs du Palais

Год выпуска: 2012
Страна: Франция
Производство: Vendôme Production, France 2 Cinéma, Wild Bunch
Жанр: комедия, биография

Режиссёр: Кристиан Венсан
В ролях: Катрин Фро, Артур Дюпон, Жан д’Ормесон, Ипполит Жирардо, Жан-Марк Руло, Филипп Юшан, Лорен Пуатрено, Херв Пьер, Брайс Форнье, Рош Лейбовичи

Перевод: Профессиональный (многоголосый закадровый), Оригинал (Французский)
Субтитры: Русские

Описание: Гортензия Лабори — известный шеф-повар в Перигоре. Однажды она получает приглашение от Президента Республики. Он хочет, чтобы Гортензия стала его личным поваром. Ее истинно французская кухня быстро соблазнит Президента, но сможет ли она преодолеть все закулисные препятствия президентского дворца? Удасться ли ей противостоять зависти коллег?



Автор рипа:

Качество: BDRip-AVC | Сэмпл
Продолжительность: 01:34:56

Формат: MKV
Видео кодек: x.264
Аудио кодек: AC3
Видео: x.264 / 1152x480 / 2.40:1 / 2399 kbps / 24,00 fps / 0.181 bit/pixel
Аудио#1: Русский / AC3 Dolby Digital / 48 KHz / 448 kbps / 3/2 (L,C,R,l,r) + LFE ch
Аудио#2: Французский / AC3 Dolby Digital / 48 KHz / 448 kbps / 3/2 (L,C,R,l,r) + LFE ch

Премьера (мир): 26 августа 2012
релиз на DVD: 20 июня 2013, «Вольга»

Media Info ▼Общее
Уникальный идентификатор : 200470255625460425935946995004476839058 (0x96D12AB5295265B2A0DCE378D7C55492)
Полное имя : Povar.Dlja.Prezidenta.2012.P.BDRip.x264.potroks.mkv
Формат : Matroska
Версия формата : Version 4 / Version 2
Размер файла : 2,19 Гбайт
Продолжительность : 1 ч. 34 м.
Общий поток : 3297 Кбит/сек
Название фильма : -=POTROKS=-
Дата кодирования : UTC 2013-06-22 14:57:34
Программа кодирования : mkvmerge v5.9.0 (On The Loose) built on Dec 15 2012 16:39:58
Библиотека кодирования : libebml v1.3.0 + libmatroska v1.4.0

Видео
Идентификатор : 1
Формат : AVC
Формат/Информация : Advanced Video Codec
Профиль формата : [email protected]
Параметр CABAC формата : Да
Параметр ReFrames формата : 14 кадров
Идентификатор кодека : V_MPEG4/ISO/AVC
Продолжительность : 1 ч. 34 м.
Битрейт : 2399 Кбит/сек
Ширина : 1152 пикселя
Высота : 480 пикселей
Соотношение сторон : 2,40:1
Режим частоты кадров : Постоянный
Частота кадров : 24,000 кадра/сек
Цветовое пространство : YUV
Субдискретизация насыщенности : 4:2:0
Битовая глубина : 8 бит
Тип развёртки : Прогрессивная
Бит/(Пиксели*Кадры) : 0.181
Размер потока : 1,55 Гбайт (71%)
Заголовок : Les saveurs du Palais
Библиотека кодирования : x264 core 125 r2208 d9d2288
Настройки программы : cabac=1 / ref=14 / deblock=1:-3:-2 / analyse=0x3:0x133 / me=umh / subme=11 / psy=1 / psy_rd=1.02:0.00 / mixed_ref=1 / me_range=32 / chroma_me=1 / trellis=2 / 8x8dct=1 / cqm=0 / deadzone=21,11 / fast_pskip=0 / chroma_qp_offset=-2 / threads=9 / lookahead_threads=1 / sliced_threads=0 / nr=0 / decimate=1 / interlaced=0 / bluray_compat=0 / constrained_intra=0 / bframes=15 / b_pyramid=2 / b_adapt=2 / b_bias=0 / direct=3 / weightb=1 / open_gop=0 / weightp=2 / keyint=240 / keyint_min=23 / scenecut=40 / intra_refresh=0 / rc_lookahead=150 / rc=2pass / mbtree=1 / bitrate=2399 / ratetol=1.0 / qcomp=0.70 / qpmin=0 / qpmax=69 / qpstep=4 / cplxblur=20.0 / qblur=0.5 / vbv_maxrate=20000 / vbv_bufsize=25000 / nal_hrd=none / ip_ratio=1.35 / aq=1:0.90
Язык : English
Default : Да
Forced : Нет

Аудио #1
Идентификатор : 2
Формат : AC-3
Формат/Информация : Audio Coding 3
Расширение режима : CM (complete main)
Параметр Endianness формата : Big
Идентификатор кодека : A_AC3
Продолжительность : 1 ч. 34 м.
Вид битрейта : Постоянный
Битрейт : 448 Кбит/сек
Каналы : 6 каналов
Расположение каналов : Front: L C R, Side: L R, LFE
Частота : 48,0 КГц
Битовая глубина : 16 бит
Метод сжатия : С потерями
Размер потока : 304 Мбайт (14%)
Заголовок : MVO | DD 5.1 @ 448 kbps
Язык : Russian
Default : Да
Forced : Да

Аудио #2
Идентифика
00c10a08a37fc192cc62d2cc952b406b602a6899Повар для Президента / Les saveurs du Palais (Кристиан Венсан, комедия, биография, 2012) [BDRip-AVC, Профессиональный (многоголосый закадровый), Оригинал (Французский), Sub] Повар для Президента / Les saveurs du Palais (Кристиан Венсан, комедия, биография, 2012) [BDRip-AVC, Профессиональный (многоголосый закадровый), Оригинал (Французский), Sub] " />

Аплоадер: Админ, дата: 23-06-2013, 00:14, торрент скачан: 359 раз

Понравилась раздача? Посмотрите эти:
  • Одноклассники 2 / Grown Ups 2 (Деннис Дуган, Комедия, 2013) [BDRip-AVC, Про ...
  • Погнали! / Getaway (Кортни Соломон, боевик, криминал, 2013) [BDRip-AVC, Про ...
  • 11.6 / 11.6 (Филипп Годо, Драма, триллер, криминал, 2013) [BDRip-AVC, Профе ...
  • Невероятный Бёрт Уандерстоун / The Incredible Burt Wonderstone (Дон Скардин ...
  • Невероятный Бёрт Уандерстоун / The Incredible Burt Wonderstone (Дон Скардин ...
  • Никто не выжил / No One Lives (Рюхэй Китамура, Триллер, ужасы, 2012) [BDRip ...
  • Шутки в сторону / De lautre cote du periph (Давид Шарон, комедия, 2012) [BD ...
  • Повар для Президента / Les saveurs du Palais (Кристиан Венсан, комедия, био ...
  • Повар для Президента / Les saveurs du Palais (Кристиан Венсан, комедия, био ...
  • Летучий отряд Скотланд-Ярда / The Sweeney (Ник Лав, Боевик, драма, криминал ...
  • Невероятный Бёрт Уандерстоун / The Incredible Burt Wonderstone (Дон Скардин ...
  • Повар для Президента / Les saveurs du Palais (Кристиан Венсан, комедия, био ...
  • Залив / The Bay (Барри Левинсон, Ужасы, фантастика, триллер, 2012) [BDRip-A ...
  • Порочные игры / Stoker (Пак Чхан Ук, Триллер, драма, детектив, 2013) [BDRip ...
  • Порочные игры / Stoker (Пак Чхан Ук, Триллер, драма, детектив, 2013) [BDRip ...
  • Наблюдатель / Le guetteur (Микеле Плачидо, криминал, 2012) [BDRip-AVC, Проф ...
  • Огонь Кристиана Лубутена 3D / FEU: Crazy Horse Paris (Бруно Халлин, Докумен ...
  • Магазинчик самоубийств 3D / Le magasin des suicides (Патрис Леконт, мультфи ...
  • Суррогат / The Sessions (Бен Луин, Драма, 2012) [BDRip-AVC, Профессиональны ...
  • Эд Вуд / Ed Wood (Тим Бёртон, драма, комедия, биография, 1994) [BDRip-AVC, ...
  • Информация
    Посетители, находящиеся в группе Гости, не могут оставлять комментарии к данной публикации.