вход на сайт

Имя пользователя :
Пароль :

Восстановление пароля Регистрация
С тобой меня радует мир / S tebou me bavi svet (Мария Поледнякова, комедия, семейный, 1982) [DVDRip, Любительский (одноголосый, закадровый) + оригинал, Субтитры: Rus]
Рейтинг:
(голосов: 1)



[img]{THEME}/images/logopost.png[/img]



С тобой меня радует мир / S tebou me bavi svet

Год выпуска: 1982
Страна: Чехословакия
Производство: Filmove Studio Barrandov
Жанр: комедия, семейный

Режиссёр: Мария Поледнякова
В ролях: Юлиус Сатинский, Яна Сульцова, Вацлав Постранецки, Элишка Балцерова, Павел Новы, Здена Студенкова, Квета Фиалова, Ян Фалтинек, Zuzana Gutheisova, Marta Buchtikova

Перевод: Любительский (одноголосый, закадровый) + оригинал
Субтитры: русские (отдельно)

Описание:
Три товарища решают провести свой отпуск в горах, но их жёны согласны отпустить их в горы только со своими детьми.


Дополнительно:
MediaInfo ▼Text
Общее
Полное имя :D:С тобой меня радует мирС тобой меня радует мирS Tebou Me Bavi Svet.avi
Формат :AVI
Размер :1.48 GiB
Продолжительность :01:22:37.800
Общий поток :2 569 Kbps
Программа кодирования :VirtualDubModRus 1.5.10.2 (build 2542/release)
Библиотека кодирования :VirtualDubMod build 2542/release

Видео
Идентификатор :0
Формат :MPEG-4 Visual
Профиль формата :Advanced [email protected]
Параметр BVOP формата :1
Параметр Qpel формата :No
Параметр GMC формата :0
Параметр Matrix формата :Custom
Идентификатор кодека :XVID
Продолжительность :1h 22mn 37s 800ms
Битрейт :1 914 Kbps
Ширина :560 pixels
Высота :416 pixels
Соотношение сторон :1.346
Частота кадров :25.000 fps
Глубина цвета :8 bits
Подвыборка цветности :4:2:0
Цветовое пространство :YUV
Тип развертки :Progressive
Бит/(Пиксели*Кадры) :0.329
Размер потока :1.10 GiB (75%)
Библиотека кодирования :XviD0046

Аудио #1
Идентификатор :1
Формат :MPEG Audio
Идентификатор кодека :55
Продолжительность :01:22:37.248
Вид битрейта :Constant
Битрейт :192 Kbps
Канал(ы) :2 channels
Частота :48.0 KHz
Метод сжатия :Lossy
Размер потока :113 MiB (7%)
Язык :Czech

Аудио #2
Идентификатор :2
Формат &n
d2d05b889061198c332e5bb07a48390ce91d1eb4С тобой меня радует мир / S tebou me bavi svet (Мария Поледнякова, комедия, семейный, 1982) [DVDRip, Любительский (одноголосый, закадровый) + оригинал, Субтитры: Rus] С тобой меня радует мир / S tebou me bavi svet (Мария Поледнякова, комедия, семейный, 1982) [DVDRip, Любительский (одноголосый, закадровый) + оригинал, Субтитры: Rus] " />

Аплоадер: Админ, дата: 23-08-2013, 13:06, торрент скачан: 359 раз

Понравилась раздача? Посмотрите эти:
  • Карлик Нос / Zwerg Nase (Карл-Хайнц Бальс, фэнтези, 1978) [DVDRip, Любитель ...
  • Сигнальщик / The Signalman (Лоуренс Гордон Кларк, короткометражка, ужасы, ...
  • Отдел исполнения наказаний / La polizia ringrazia (Стено, драма, криминал, ...
  • Тайная полиция Италии / Italian Secret Service (Луиджи Коменчини, комедия, ...
  • Маркиз дель Грилло / Il Marchese del Grillo (Марио Моничелли, комедия, 1981 ...
  • Ботинок по имени Мелихар / Bota Jmenem Melichar (Зденек Трошка, семейный, 1 ...
  • Докторша и полковник / La dottoressa ci sta col colonnello (Мишель Массимо ...
  • Энн из Зеленых крыш / Anne of Green Gables (Кевин Салливан, драма, семейный ...
  • Одинокая женщина / Kobieta samotna (Агнешка Холланд, драма, 1981) [DVDRip, ...
  • Гикор (Сергей Исраелян, драма, семейный, 1982) [DVDRip, Профессиональный (п ...
  • Свидетель обвинения / Witness for the Prosecution (Билли Уайлдер, драма, де ...
  • Ослиная шкура (Надежда Кошеверова, фэнтези, мелодрама, комедия, семейный, 1 ...
  • Риф Донована / Donovans Reef (Джон Форд, мелодрама, комедия, 1963) [DVDRip, ...
  • Румбурак / Rumburak (Вацлав Ворличек, семейный, 1985) [DVDRip, Любительский ...
  • У меня есть лев (2 части из 2) (Константин Бромберг, драма, комедия, приклю ...
  • Путешествие на Луну / Le Voyage dans la Lune (Жорж Мельес, короткометражка, ...
  • Круг чистой воды / Ring of Bright Water (Джек Коуффер, драма, комедия, 1969 ...
  • Плохие спят спокойно / Warui yatsu hodo yoku nemuru (Акира Куросава, трилле ...
  • Отвратительные, грязные, злые / Brutti, sporchi e cattivi (Этторе Скола, др ...
  • Розенкранц и Гильденштерн мертвы / Rosencrantz & Guildenstern Are Dead (Том ...
  • Калифорнийский отель / California Suite (Херберт Росс, мелодрама, комедия, ...
  • Урок любви / En lektion i karlek (Ингмар Бергман, драма, комедия, 1954) [DV ...
  • На хуторе у леса / Na samote u lesa (Иржи Менцель, драма, комедия, семейный ...
  • Как раздражать людей / How to Irritate People (Йен Фордайсе, комедия, 1969) ...
  • Медведи и я / The Bears and I (Бернард МакЭвети, драма, семейный, 1974) [DV ...
  • Информация
    Посетители, находящиеся в группе Гости, не могут оставлять комментарии к данной публикации.