вход на сайт

Имя пользователя :
Пароль :

Восстановление пароля Регистрация
Грязная кампания за честные выборы / The Campaign (Джей Роуч , Комедия,2012) [HDRip, Профессиональный (многоголосный, закадровый)]
Рейтинг:
(голосов: 1)



[img]{THEME}/images/logopost.png[/img]



Грязная кампания за честные выборы / The Campaign

Год выпуска: 2012
Производство: Everyman Pictures, Gary Sanchez Productions
Страна: США
Жанр: комедия

Режиссёр: Джей Роуч
В ролях: Уилл Феррелл, Зак Галифианакис, Джейсон Судейкис, Сара Бэйкер, Дилан МакДермотт, Кэтрин ЛаНаса, Брайан Кокс, Джон Литгоу, Дэн Эйкройд, Скотт А. Мартин

Перевод: Профессиональный (многоголосный, закадровый)
Субтитры: нет

Описание: Два конкурирующих политика Кэм Брэди и Марти Хаггинс, пытаются победить на выборах, чтобы представлять свой небольшой штат Северная Каролина в Палате представителей США. Каждый при этом использует свои методы для достижения наилучшего результата.Качество: HDRip
Продолжительность: 01:25:29

Формат: AVI
Видео кодек: XviD
Аудио кодек: МР3
Видео: 640x352 (1.82:1),23.976 fps,XviD build 50~1003 kbps avg,0.19 bit/pixel
Аудио: 48 kHz,MPEG Layer 3~2 ch,128.00 kbps avg

МедиаИнфо ▼Общее
Полное имя : E:ТоррентыGrjaznaja.kampanija.za.chestnye.vybory.2012.P.HDRip.700Mb.avi
Формат : AVI
Формат/Информация : Audio Video Interleave
Размер файла : 698 Мбайт
Продолжительность : 1 ч. 25 м.
Общий поток : 1141 Кбит/сек
Программа кодирования : VirtualDubMod 1.5.10.3 | www.virtualdub-fr.org || (build 2550/release)
Библиотека кодирования : VirtualDubMod build 2550/release

Видео
Идентификатор : 0
Формат : MPEG-4 Visual
Профиль формата : Advanced [email protected]
Параметр BVOP формата : 2
Параметр QPel формата : Нет
Параметр GMC формата : Без точки перехода
Параметр матрицы формата : Выборочная
Идентификатор кодека : XVID
Идентификатор кодека/Подсказка : XviD
Продолжительность : 1 ч. 25 м.
Битрейт : 1004 Кбит/сек
Ширина : 640 пикселей
Высота : 352 пикселя
Соотношение сторон : 16:9
Частота кадров : 23,976 кадра/сек
Цветовое пространство : YUV
Субдискретизация насыщенности : 4:2:0
Битовая глубина : 8 бит
Тип развёртки : Прогрессивная
Метод сжатия : С потерями
Бит/(Пиксели*Кадры) : 0.186
Размер потока : 614 Мбайт (88%)
Библиотека кодирования : XviD 1.2.1 (UTC 2008-12-04)

Аудио
Идентификатор : 1
Формат : MPEG Audio
Версия формата : Version 1
Профиль формата : Layer 3
Идентификатор кодека : 55
Идентификатор кодека/Подсказка : MP3
Продолжительность : 1 ч. 25 м.
Вид битрейта : Постоянный
Битрейт : 128 Кбит/сек
Каналы : 2 канала
Частота : 48,0 КГц
Метод сжатия : С потерями
Размер потока : 78,3 Мбайт (11%)
Выравнивание : Соединение по промежуткам
Продолжительность промежутка : 42 мс. (1,00 видеокадр)
Время предзагрузки промежутка : 504 мс.


b088783ca22cdee596751ef157afba1bbda6c31eГрязная кампания за честные выборы / The Campaign (Джей Роуч , Комедия,2012) [HDRip, Профессиональный (многоголосный, закадровый)] Грязная кампания за честные выборы / The Campaign (Джей Роуч , Комедия,2012) [HDRip, Профессиональный (многоголосный, закадровый)] " />

Аплоадер: Админ, дата: 5-09-2013, 20:09, торрент скачан: 359 раз

Понравилась раздача? Посмотрите эти:
  • Кодовое имя «Джеронимо» / Seal Team Six: The Raid on Osama Bin Laden (Джон ...
  • Слежка / The Letter (Джей Ананья, Триллер, драма, 2012) [DVDRip, Профессион ...
  • Грязная кампания за честные выборы [Расширенная версия] / The Campaign [Ext ...
  • Грязная кампания за честные выборы [Расширенная версия] / The Campaign [Ext ...
  • Грязная кампания за честные выборы [Расширенная версия] / The Campaign [Ext ...
  • Грязная кампания за честные выборы [Театральная версия] / The Campaign [Tea ...
  • Злые птицы: Хэллоуин / Angry Birds: HamOWeen (Джей Ройвайнен, Мультфильм, к ...
  • Грязная кампания за честные выборы / The Campaign (Джей Роуч, Комедия, 2012 ...
  • Грязная кампания за честные выборы [Расширенная версия] / The Campaign [Ext ...
  • Бог любви / God of Love (Люк Мэзени, Короткометражка, фэнтези, комедия, мел ...
  • Любовь по расписанию / Поезд (Сергей Мезенцев, мелодрама, 2012) [HDTVRip, Н ...
  • Вечерний Ургант // Сезон 2. Выпуск 63 (ТВ-шоу, 20.12.2012) [SATRip, Не треб ...
  • Заместитель / Il supplente (Андреа Жублин, Короткометражка, комедия, 2007) ...
  • Вечерний Ургант // Сезон 2. Выпуск 66 (ТВ-шоу, 25.12.2012) [SATRip, Не треб ...
  • Покорить высоту / Take It to the Limit (Сэм Кит / Sam Kieth, семейный, 2000 ...
  • Брат якудзы / Brother (Такеши Китано, триллер, драма, криминал, 2000) [HDRi ...
  • [Трейлер] Грязная кампания за честные выборы / The Campaign (Джей Роуч, ком ...
  • [EN] Грязная кампания за честные выборы / The Campaign (Джей Роуч, Комедия, ...
  • Грязная кампания за честные выборы / The Campaign (Джей Роуч, Комедия, 2012 ...
  • Грязная кампания за честные выборы [Театральная версия] / The Campaign [Tea ...
  • Информация
    Посетители, находящиеся в группе Гости, не могут оставлять комментарии к данной публикации.