вход на сайт

Имя пользователя :
Пароль :

Восстановление пароля Регистрация
Держись до конца / Going the Distance (Марк Гриффитс, комедия, 2004) [HDRip-AVC, Профессиональный (дублированный)]
Рейтинг:
(голосов: 1)



[img]{THEME}/images/logopost.png[/img]



Держись до конца / Going the Distance

Год выпуска: 2004
Страна: Канада
Производство: Brightlight Pictures Inc.
Жанр: комедия

Режиссёр: Марк Гриффитс
В ролях: Кристофер Жако,Джоэнн Келли,Шоун Робертс,Мэйко Нгуйен,Райан Бельвиль,Кэтрин Уинник,Аугуст Шелленберг,Мэтт Фрюэр,Джеки Барроуз,Эндрю Эйрли

Перевод: Профессиональный (дублированный)
Субтитры: Отсутствуют

Описание: Что делать, если ваша любимая девушка уехала в другой город, получив работу у воротилы шоу-бизнеса? Особенно зная, что он дамский угодник, каких еще поискать. Может махнуть на всё рукой и развлечься на стороне?

Благо родители сами подсовывают тебе девушку по вызову, стараясь своей заботой скрасить одиночество сына, а друзья твердят, что надо, мол, выбросить из головы глупости и отрываться себе, пока есть возможность. Или поехать следом за любимой и сделать ей предложение? Ник решает вернуть свою любовь во что б это ни стало и отправляется в путь в компании своих друзей-авантюристов. Впереди у путешественников не одна миля головокружительных приключений и забавных неожиданностей.



Автор рипа: Dexter_lex

Качество: HDRip-AVC | Сэмпл
Продолжительность: 01:33:28

Формат: MKV
Видео кодек: x.264
Аудио кодек: AC3
Видео: 848x480 (16:9), 23.976 fps, H264, 1 846 Kbps, 0.189 bit/pixel
Аудио: 48 kHz, AC3 Dolby Digital, 3/2 (L,C,R,l,r) + LFE ch, ~384 kbps

Премьера (мир): 20 августа 2004
Премьера (РФ): 11 августа 2005, «Lizard Cinema»

Media Info ▼D:Мои рипыDerzhis.Do.Konca.2004.HDRip-AVC.dexter_lex.mkv
General
Unique ID : 242379721678613137039020456239125635743 (0xB658A2EA68E3936FB1E70D172B62229F)
Complete name : D:Мои рипыDerzhis.Do.Konca.2004.HDRip-AVC.dexter_lex.mkv
Format : Matroska
Format version : Version 4 / Version 2
File size : 1.46 GiB
Duration : 1h 33mn
Overall bit rate : 2 232 Kbps
Encoded date : UTC 2013-09-08 03:33:04
Writing application : mkvmerge v6.1.0 (Old Devil) built on Mar 4 2013 09:10:42
Writing library : libebml v1.3.0 + libmatroska v1.4.0
Video #1
ID : 1
Format : AVC
Format/Info : Advanced Video Codec
Format profile : [email protected]
Format settings, CABAC : Yes
Format settings, ReFrames : 11 frames
Codec ID : V_MPEG4/ISO/AVC
Duration : 1h 33mn
Bit rate : 1 846 Kbps
Width : 848 pixels
Height : 480 pixels
Display aspect ratio : 16:9
Frame rate : 23.976 fps
Color space : YUV
Chroma subsampling : 4:2:0
Bit depth : 8 bits
Scan type : Progressive
Bits/(Pixel*Frame) : 0.189
Stream size : 1.18 GiB (81%)
Writing library : x264 core 130 r2273 b3065e6
Encoding settings : cabac=1 / ref=11 / deblock=1:-2:-2 / analyse=0x3:0x113 / me=umh / subme=10 / psy=1 / psy_rd=1.00:0.15 / mixed_ref=1 / me_range=32 / chroma_me=1 / trellis=2 / 8x8dct=1 / cqm=0 / deadzone=21,11 / fast_pskip=0 / chroma_qp_offset=-3 / threads=6 / lookahead_threads=1 / sliced_threads=0 / nr=0 / decimate=1 / interlaced=0 / bluray_compat=0 / constrained_intra=0 / bframes=10 / b_pyramid=2 / b_adapt=2 / b_bias=0 / direct=3 / weightb=1 / open_gop=0 / weightp=2 / keyint=240 / keyint_min=23 / scenecut=40 / intra_refresh=0 / rc_lookahead=60 / rc=2pass / mbtree=1 / bitrate=1846 / ratetol=1.0 / qcomp=0.60 / qpmin=0 / qpmax=69 / qpstep=4 / cplxblur=20.0 / qblur=0.5 / ip_ratio=1.40 / aq=1:1.00
Language : English
Default : Yes
Forced : No
Audio #2
ID : 2
Format : AC-3
Format/Info : Audio Coding 3
Mode extension : CM (complete main)
Codec ID : A_AC3
Duration : 1h 33mn
Bit rate mode : Constant
Bit rate : 384 Kbps
Channel(s) : 6 channels
Channel positions : Front: L C R, Side: L R, LFE
Sampling rate : 48.0 KHz
Bit depth : 16 bits
Compression mode : Lossy
Stream size : 257 MiB (17%)
Language : Russian
Default : Yes
Forced : No





877487d7ad4efee02435c924ae149413078fdce4Держись до конца / Going the Distance (Марк Гриффитс, комедия, 2004) [HDRip-AVC, Профессиональный (дублированный)] Держись до конца / Going the Distance (Марк Гриффитс, комедия, 2004) [HDRip-AVC, Профессиональный (дублированный)] " />

Аплоадер: Админ, дата: 9-09-2013, 21:48, торрент скачан: 359 раз

Понравилась раздача? Посмотрите эти:
  • Шалун / LiTTLEMAN (Кинен Айвори Уайанс, комедия, криминал, 2006) [HDRip-AVC ...
  • Каньоны / The Canyons (Пол Шредер, триллер, драма, 2013) [BDRip AVC, Дублир ...
  • Грязь / Filth (Джон С. Бейрд, криминал, драма, комедия, 2013) [BDRip-AVC, ...
  • FLO / NRG [2012, Pop, Dance, MasterRip]
  • Eminem / Rap God [2013, Rap, HDRip]
  • Счастливчик Гилмор / Happy Gilmore (Деннис Дуган, мелодрама, комедия, спорт ...
  • Держись до конца / Going the Distance (Марк Гриффитс, комедия, 2004) [BDRip ...
  • Властелин любви / The Look of Love (Майкл Уинтерботтом, драма, комедия, био ...
  • Соучастник / Collateral (Майкл Манн, Триллер, драма, криминал, 2004) [BDRip ...
  • Держись до конца / Going the Distance (Марк Гриффитс, Комедия, 2004) [DVDRi ...
  • UFC The Ultimate 100 Knockouts - PPV [MMA,2013, HDTVRip 720p]
  • UFC - Best Of 2012 Year In Review[MMA,2013, BDRip 540p]
  • VA / 2013 MTV Movie Awards [2013, Церемония награждения, HDRip]
  • Странная жизнь Тимоти Грина / The Odd Life of Timothy Green (Питер Хеджес, ...
  • Оборотень: Зверь среди нас / Werewolf: The Beast Among Us (Луи Морно, ужасы ...
  • Лига Чемпионов 2011-12 / 1/2 финала / Ответный матч / Барселона (Испания) - ...
  • Футбольный клуб / Чемпионат Европы 2012 / НТВ+ [Футбол, 08.06.2012, HDTVRip ...
  • Чемпионат Европы 2012 / 1/2 финала / Португалия - Испания / Спорт 1 HD [Фу ...
  • Чемпионат Европы 2012 / 1/2 финала / Германия - Италия / Спорт 1 HD [Футбо ...
  • Chelsea - Season Review 2011-12 / Челси - Обзор Сезона 2011-12 [ Футбол, 20 ...
  • Mylene Farmer / Du Temps [2011, Pop, HDTVRip]
  • Mylene Farmer / Bleu Noir [2011, Pop, HDTVRip]
  • Держись до конца / Going the Distance (Марк Гриффитс, комедия, 2004) [DVDRi ...
  • Держись до Конца / Going the Distance (Марк Гриффитс, 2004 г. Комедия) [DVD ...
  • Держись до конца / Going the Distance (Марк Гриффитс / Mark Griffiths, коме ...
  • Информация
    Посетители, находящиеся в группе Гости, не могут оставлять комментарии к данной публикации.